TAIFUN With Song
Навигация
Вернуться   TAIFUN With Song > Music (обменник) > Другие направления музыки > Jazz и Blues
Расширенный поиск
Jazz и Blues Гибкая ритмика, импровизационное начало, гармонии и мелодии - все это Jazz. Blues - жизнеутверждающая музыка, рожденная из душевной боли

А знаете ли Вы, что...
Каким образом в Древнем Китае для определения эталона длины применяли колокол?
«В Древнем Китае эталоном меры длины служил специальный колокол, настроенный на заданную высоту звучания. В другом приспособлении натягивалась струна, чтобы её звук соответствовал данной высоте, и получившаяся длина струны принималась за эталон.»
 
Опции темы

  #1
Старый 01.03.2016, 18:02
sergych
Координатор
Досье
 
Аватар для sergych
Релиз Nat King Cole - The Best of the Nat King Cole Trio: The Instrumental Classics


1992 - Nat King Cole - The Best of the Nat King Cole Trio: The Instrumental Classics




Исполнитель/Artist: Nat King Cole
Альбом/Album: The Best of the Nat King Cole Trio: The Instrumental Classics
Год/Year: 1992
Жанр/Genre: Jazz, Swing, Instrumental
Страна/Country: Канада
Рекорд-лейбл/Record label: Capitol Records
Номер в каталоге/Catalogue #: CDP 7 98288 2
Формат/Format: Free Lossless Audio Codec (*.flac)
Качество/Quality: Lossless
Тип рипа/RIP Type: image+.cue
Продолжительность/Length: 00:52:32
Источник/Source: Собственный рип
Размер/Size: 183.1 MB

Сканы в комплекте

Треклист

01. Jumpin' at Capitol [0:02:28.12]
(Nadine Robinson)
Recorded Los Angeles US-CA, 1943-11-30.
YEAR: 1943
02. The Man I Love [0:03:21.65]
(George Gershwin//Ira Gershwin)
Recorded Los Angeles US-CA, 1944-01-17.
YEAR: 1944
03. Body and Soul [0:03:21.03]
(Johnny Green//Edward Heyman/Robert Sour/Frank Eyton)
Recorded Los Angeles US-CA, 1944-01-17.
YEAR: 1944
04. Prelude in C Sharp Minor [0:02:57.27]
(Sergei Rachmaninoff)
Recorded Los Angeles US-CA, 1944-01-17.
YEAR: 1944
05. What Is This Thing Called Love? [0:02:58.63]
(Cole Porter)
Recorded Los Angeles US-CA, 1944-01-17.
YEAR: 1944
06. Easy Listening Blues [0:03:11.55]
(Nadine Robinson)
Recorded Los Angeles US-CA, 1944-03-06.
YEAR: 1944
07. Sweet Georgia Brown [0:02:20.22]
(Maceo Pinkard//Kenneth Casey)
Recorded Los Angeles US-CA, 1945-05-23.
YEAR: 1945
08. This Way Out [0:03:03.53]
(Nat Cole)
Recorded New York US-NY, 1945-10-18.
YEAR: 1945
09. Smoke Gets in Your Eyes [0:02:56.55]
(Jerome Kern//Otto Harbach)
Recorded New York US-NY, 1946-10-30.
YEAR: 1946
10. Honeysuckle Rose [0:02:40.07]
(Fats Waller//Andy Razaf)
Recorded Los Angeles US-CA, 1947-07-02.
YEAR: 1947
11. Rhumba Azul [0:02:34.30]
(Nat Cole)
Recorded Los Angeles US-CA, 1947-08-06.
YEAR: 1947
12. Moonlight in Vermont [0:03:14.03]
(Karl Suessdorf//John M. Blackburn)
Recorded Los Angeles US-CA, 1947-08-13.
YEAR: 1947
13. How High the Moon [0:02:41.40]
(Morgan Lewis//Nancy Hamilton)
Recorded Los Angeles US-CA, 1947-08-13.
YEAR: 1947
14. I'll Never Be the Same [0:02:50.40]
(Matt Malneck/Frank Signorelli//Gus Kahn)
Recorded Los Angeles US-CA, 1947-08-13.
YEAR: 1947
15. These Foolish Things [0:03:14.22]
(Jack Strachey/Harry Link//Eric Maschwitz)
Recorded Los Angeles US-CA, 1947-08-13.
YEAR: 1947
16. Laugh! Cool Clown [0:03:21.48]
(Ruggero Leoncavallo)
Recorded New York US-NY, 1949-03-22.
YEAR: 1949
17. Bop Kick [0:02:37.20]
(Nat Cole)
Recorded New York US-NY, 1949-03-22.
YEAR: 1949
18. Peaches [0:02:38.30]
(Terry Gibbs)
Recorded New York US-NY, 1949-03-30.
YEAR: 1949
[свернуть]

youtube.com

[свернуть]

Исполнители/Performers

Nat King Cole [Nathaniel Adams Coles] - piano
Oscar Moore [tracks 1-15], Irving Ashby [tracks 16-18] - guitar
Johnny Miller [tracks 1-15], Joe Comfort [tracks 16-18] - bass
Jack Costanzo [tracks 16-18] - congas, bongos
[свернуть]

EAC лог

Exact Audio Copy V1.1 from 23. June 2015

EAC extraction logfile from 28. February 2016, 20:05

Nat King Cole / The Best of the Nat King Cole Trio: The Instrumental Classics

Used drive : ATAPI iHAS124 D Adapter: 0 ID: 2

Read mode : Secure
Utilize accurate stream : Yes
Defeat audio cache : Yes
Make use of C2 pointers : No

Read offset correction : 6
Overread into Lead-In and Lead-Out : No
Fill up missing offset samples with silence : Yes
Delete leading and trailing silent blocks : No
Null samples used in CRC calculations : Yes
Used interface : Installed external ASPI interface

Used output format : User Defined Encoder
Selected bitrate : 1024 kBit/s
Quality : High
Add ID3 tag : Yes
Command line compressor : C:\Program Files (x86)\Exact Audio Copy\Flac\flac.exe
Additional command line options : -6 -V -T "ARTIST=%artist%" -T "TITLE=%title%" -T "ALBUM=%albumtitle%" -T "DATE=%year%" -T "TRACKNUMBER=%tracknr%" -T "GENRE=%genre%" -T "COMMENT=%comment%" -T "BAND=%albuminterpret%" -T "COMPOSER=%composer%" %haslyrics%--tag-from-file=LYRICS="%lyricsfile%"%haslyrics% -T "DISCNUMBER=%cdnumber%" -T "TOTALDISCS=%totalcds%" -T "TOTALTRACKS=%numtracks%" %hascover%--picture="%coverfile%"%hascover% %source% -o %dest%


TOC of the extracted CD

Track | Start | Length | Start sector | End sector
---------------------------------------------------------
1 | 0:00.00 | 2:28.12 | 0 | 11111
2 | 2:28.12 | 3:21.65 | 11112 | 26251
3 | 5:50.02 | 3:21.03 | 26252 | 41329
4 | 9:11.05 | 2:57.27 | 41330 | 54631
5 | 12:08.32 | 2:58.63 | 54632 | 68044
6 | 15:07.20 | 3:11.55 | 68045 | 82424
7 | 18:19.00 | 2:20.22 | 82425 | 92946
8 | 20:39.22 | 3:03.53 | 92947 | 106724
9 | 23:43.00 | 2:56.55 | 106725 | 119979
10 | 26:39.55 | 2:40.07 | 119980 | 131986
11 | 29:19.62 | 2:34.30 | 131987 | 143566
12 | 31:54.17 | 3:14.03 | 143567 | 158119
13 | 35:08.20 | 2:41.40 | 158120 | 170234
14 | 37:49.60 | 2:50.40 | 170235 | 183024
15 | 40:40.25 | 3:14.22 | 183025 | 197596
16 | 43:54.47 | 3:21.48 | 197597 | 212719
17 | 47:16.20 | 2:37.20 | 212720 | 224514
18 | 49:53.40 | 2:38.30 | 224515 | 236394


Range status and errors

Selected range

Filename C:\mm\Nat King Cole\1992 - The Best Of The Nat King Cole Trio [CDP 7 98288 2]\Nat King Cole - The Best of the Nat King Cole Trio- The Instrumental Classics.wav

Peak level 76.5 %
Extraction speed 8.8 X
Range quality 100.0 %
Test CRC E922A7A4
Copy CRC E922A7A4
Copy OK

No errors occurred


AccurateRip summary

Track 1 accurately ripped (confidence 12) [E8D9AEF2] (AR v2)
Track 2 accurately ripped (confidence 12) [4091ECB6] (AR v2)
Track 3 accurately ripped (confidence 12) [7C18E4E4] (AR v2)
Track 4 accurately ripped (confidence 12) [26BA97DD] (AR v2)
Track 5 accurately ripped (confidence 12) [F9CEC370] (AR v2)
Track 6 accurately ripped (confidence 12) [2272D74F] (AR v2)
Track 7 accurately ripped (confidence 12) [EAAB6DE0] (AR v2)
Track 8 accurately ripped (confidence 12) [5479384D] (AR v2)
Track 9 accurately ripped (confidence 12) [DB2B9BB4] (AR v2)
Track 10 accurately ripped (confidence 12) [FC322E42] (AR v2)
Track 11 accurately ripped (confidence 12) [29EEF5C5] (AR v2)
Track 12 accurately ripped (confidence 12) [B0E4B90B] (AR v2)
Track 13 accurately ripped (confidence 12) [1C720378] (AR v2)
Track 14 accurately ripped (confidence 12) [25C7866C] (AR v2)
Track 15 accurately ripped (confidence 12) [BBDD649E] (AR v2)
Track 16 accurately ripped (confidence 12) [4A8E14FA] (AR v2)
Track 17 accurately ripped (confidence 12) [81D90458] (AR v2)
Track 18 accurately ripped (confidence 12) [CC09D4A2] (AR v2)

All tracks accurately ripped

End of status report
[свернуть]

Файл CUE

REM GENRE "Easy Listening"
REM DATE 1992
REM DISCID D50C4F12
REM COMMENT "ExactAudioCopy v1.1"
PERFORMER "Nat King Cole"
TITLE "The Best of the Nat King Cole Trio: The Instrumental Classics"
FILE "Nat King Cole - The Best of the Nat King Cole Trio- The Instrumental Classics.flac" WAVE
TRACK 01 AUDIO
TITLE "Jumpin' at Capitol"
PERFORMER "Nat King Cole"
INDEX 01 00:00:00
TRACK 02 AUDIO
TITLE "The Man I Love"
PERFORMER "Nat King Cole"
INDEX 00 02:26:35
INDEX 01 02:28:12
TRACK 03 AUDIO
TITLE "Body and Soul"
PERFORMER "Nat King Cole"
INDEX 00 05:47:57
INDEX 01 05:50:02
TRACK 04 AUDIO
TITLE "Prelude in C Sharp Minor"
PERFORMER "Nat King Cole"
INDEX 00 09:08:42
INDEX 01 09:11:05
TRACK 05 AUDIO
TITLE "What Is This Thing Called Love?"
PERFORMER "Nat King Cole"
INDEX 00 12:06:60
INDEX 01 12:08:32
TRACK 06 AUDIO
TITLE "Easy Listening Blues"
PERFORMER "Nat King Cole"
INDEX 00 15:05:12
INDEX 01 15:07:20
TRACK 07 AUDIO
TITLE "Sweet Georgia Brown"
PERFORMER "Nat King Cole"
INDEX 00 18:17:21
INDEX 01 18:19:00
TRACK 08 AUDIO
TITLE "This Way Out"
PERFORMER "Nat King Cole"
INDEX 00 20:36:50
INDEX 01 20:39:22
TRACK 09 AUDIO
TITLE "Smoke Gets in Your Eyes"
PERFORMER "Nat King Cole"
INDEX 00 23:40:42
INDEX 01 23:43:00
TRACK 10 AUDIO
TITLE "Honeysuckle Rose"
PERFORMER "Nat King Cole"
INDEX 00 26:37:37
INDEX 01 26:39:55
TRACK 11 AUDIO
TITLE "Rhumba Azul"
PERFORMER "Nat King Cole"
INDEX 00 29:17:10
INDEX 01 29:19:62
TRACK 12 AUDIO
TITLE "Moonlight in Vermont"
PERFORMER "Nat King Cole"
INDEX 00 31:52:22
INDEX 01 31:54:17
TRACK 13 AUDIO
TITLE "How High the Moon"
PERFORMER "Nat King Cole"
INDEX 00 35:05:40
INDEX 01 35:08:20
TRACK 14 AUDIO
TITLE "I'll Never Be the Same"
PERFORMER "Nat King Cole"
INDEX 00 37:47:60
INDEX 01 37:49:60
TRACK 15 AUDIO
TITLE "These Foolish Things"
PERFORMER "Nat King Cole"
INDEX 00 40:37:67
INDEX 01 40:40:25
TRACK 16 AUDIO
TITLE "Laugh! Cool Clown"
PERFORMER "Nat King Cole"
INDEX 00 43:52:56
INDEX 01 43:54:47
TRACK 17 AUDIO
TITLE "Bop Kick"
PERFORMER "Nat King Cole"
INDEX 00 47:13:67
INDEX 01 47:16:20
TRACK 18 AUDIO
TITLE "Peaches"
PERFORMER "Nat King Cole"
INDEX 00 49:51:55
INDEX 01 49:53:40
[свернуть]

Лог проверки качества

AUDIOCHECKER v2.0 beta (build 457) - by Dester -
~~~~~~~~~~~~~~~~~~~~~~~~~~~~~~~~~~
-=== НЕ РЕДАКТИРУЙТЕ ЭТОТ ФАЙЛ! ===-

Путь: ...\1992 - The Best Of The Nat King Cole Trio [CDP 7 98288 2]

1 -=- Nat King Cole - The Best of the Nat King Cole Trio- The Instrumental Classics.flac -=- CDDA (99%)

93299748
[свернуть]

Спектр частот

[свернуть]

Скачать Nat King Cole - The Best of the Nat King Cole Trio: The Instrumental Classics



password: sergych
[свернуть]
My opinion of release: 10/10
__________________
TAIFUN.Wings of Soul

Вверх
Похожие темы
Тема Автор Раздел Ответов Последнее сообщение
Альбом Diana Krall - All for You: A Dedication to the Nat King Cole Trio sergych Jazz и Blues 1 11.04.2018 22:33
Сборник Nat King Cole - At Christmas sergych Jazz и Blues 0 17.01.2015 09:25
Ремикс Nat King Cole - Re: Generations sergych Trip-hop 0 27.05.2014 20:36
Альбом Nat King Cole - Penthouse Serenade & The Piano Style Of Nat King Cole sergych Jazz и Blues 0 27.04.2014 19:32
Сборник Nat King Cole - The Best Of Nat King Cole (Ten Best Series) sergych Jazz и Blues 0 23.04.2014 21:35


Метки
1992 , instrumental , jazz , nat king cole , swing , the best of the nat king cole trio: the instrumental classics

Опции темы

Ваши права в разделе
Вы не можете создавать новые темы
Вы не можете отвечать в темах
Вы не можете прикреплять вложения
Вы не можете редактировать свои сообщения

Быстрый переход



Текущее время: 10:37. Часовой пояс GMT +3.
Powered by vBulletin® Version 3.8.10
Copyright ©2000 - 2018, vBulletin Solutions, Inc. Перевод: zCarot
© 2008 - 2018 Taifun With Song
Яндекс.Метрика