TAIFUN With Song - качественная и редкая музыка
Навигация
Progressive Rock Единственной универсальной характеристикой прогрессивного рока является усложнение музыкальной формы. Это проявляется в удлиннении и усложнении музыкальных пьес, тяготении к циклическим формам академической музыки; расширении репертуара используемых тембров, усложнении метра и ритма, использовании нетрадиционных для рока мелодических и гармонических решений; поэзии, уходящей от тем развлекательной музыки и тяготеющей к философским «вечным темам», фантастической и фентезийной тематике; переплетении с классической и современной академической музыкой, джазом.

А знаете ли Вы, что...
Почему учитель вокала остановил занятия с Джонни Кэшем и посоветовал ему никогда больше не учиться пению?
«Легенда кантри Джонни Кэш рос в небогатой фермерской семье. Увидев его талант к пению, мать собрала денег, чтобы Джонни посещал уроки вокала. Однако после трёх уроков учитель остановил обучение и сказал ему, чтобы тот никогда больше не брал подобных уроков и не отклонялся от данного природой голоса.»
 
Опции темы

  #1
Старый 14.08.2008, 05:01
sergych
Координатор
Досье
 
Аватар для sergych
По умолчанию Camel - Camel


1973(2002) - Camel - Camel




Исполнитель/Artist: Camel
Альбом/Album: Camel
Год/Year: 1973
Ремастеринг/Remaster: 2002
Жанр/Genre: Progressive rock
Страна/Country: Великобритания
Рекорд-лейбл/Record label: MCA Records / Universal Music
Номер в каталоге/Catalogue #: 8829252
Формат/Format: Free Lossless Audio Codec (*.flac)
Качество/Quality: Lossless
Тип рипа/RIP Type: image+.cue
Продолжительность/Length: 01:01:49
Источник/Source: Из интернета
Размер/Size: 431.8 MB

Сканы в комплекте

Треклист

01 - Slow Yourself Down
02 - Mystic Queen
03 - Six Ate
04 - Separation
05 - Never Let Go
06 - Curiosity
07 - Arubaluba

Bonus Tracks on 2002 Remaster
08 - Never Let Go (Single Version)
09 - Homage To The God Of Light (Recorded Live At Marquee Club - 29Th October 1974)
[свернуть]

youtube.com

[свернуть]

Исполнители/Performers

Andrew Latimer – guitar, vocals on "Slow Yourself Down" and "Separation"
Peter Bardens – organ, mellotron, piano, VCS 3 synthesizer, vocals on "Never Let Go"
Doug Ferguson – bass guitar, vocals on "Mystic Queen" and "Curiosity"
Andy Ward – drums, percussion
[свернуть]

EAC лог

Exact Audio Copy V0.99 prebeta 5 from 4. May 2009

EAC extraction logfile from 1. October 2009, 23:43

Camel / Camel

Used drive : LITE-ON DVDRW LH-20A1H Adapter: 0 ID: 0

Read mode : Secure
Utilize accurate stream : Yes
Defeat audio cache : Yes
Make use of C2 pointers : No

Read offset correction : 6
Overread into Lead-In and Lead-Out : No
Fill up missing offset samples with silence : Yes
Delete leading and trailing silent blocks : No
Null samples used in CRC calculations : Yes
Used interface : Native Win32 interface for Win NT & 2000

Used output format : Internal WAV Routines
Sample format : 44.100 Hz; 16 Bit; Stereo


TOC of the extracted CD

Track | Start | Length | Start sector | End sector
---------------------------------------------------------
1 | 0:00.00 | 4:47.56 | 0 | 21580
2 | 4:47.56 | 5:37.30 | 21581 | 46885
3 | 10:25.11 | 6:02.42 | 46886 | 74077
4 | 16:27.53 | 3:56.47 | 74078 | 91824
5 | 20:24.25 | 6:23.16 | 91825 | 120565
6 | 26:47.41 | 5:53.09 | 120566 | 147049
7 | 32:40.50 | 6:27.38 | 147050 | 176112
8 | 39:08.13 | 3:40.20 | 176113 | 192632
9 | 42:48.33 | 19:01.23 | 192633 | 278230


Range status and errors

Selected range

Filename C:\RIP\Camel (Expanded)\Camel.wav

Peak level 98.8 %
Range quality 100.0 %
Copy CRC B2F4F323
Copy OK

No errors occurred


AccurateRip summary

Track 1 accurately ripped (confidence 26) [5F23C152]
Track 2 accurately ripped (confidence 25) [3B2584FA]
Track 3 accurately ripped (confidence 25) [F55A57DF]
Track 4 accurately ripped (confidence 25) [BB631BF3]
Track 5 accurately ripped (confidence 25) [D8C0C979]
Track 6 accurately ripped (confidence 25) [9B095476]
Track 7 accurately ripped (confidence 25) [D01EA21E]
Track 8 accurately ripped (confidence 25) [063F01A1]
Track 9 accurately ripped (confidence 25) [B6DD0CEF]

All tracks accurately ripped

End of status report
[свернуть]

Файл CUE

REM GENRE Rock
REM DATE 1973 / 2002
REM DISCID 830E7D09
REM COMMENT ExactAudioCopy v0.99pb5
PERFORMER "Camel"
TITLE "Camel (Universal 8829252)"
FILE "Camel.flac" WAVE
TRACK 01 AUDIO
TITLE "Slow Yourself Down"
INDEX 01 00:00:00
TRACK 02 AUDIO
TITLE "Mystic Queen"
INDEX 01 04:47:56
TRACK 03 AUDIO
TITLE "Six Ate"
INDEX 01 10:25:11
TRACK 04 AUDIO
TITLE "Separation"
INDEX 01 16:27:53
TRACK 05 AUDIO
TITLE "Never Let Go"
INDEX 01 20:24:25
TRACK 06 AUDIO
TITLE "Curiosity"
INDEX 01 26:47:41
TRACK 07 AUDIO
TITLE "Arubaluba"
INDEX 01 32:40:50
TRACK 08 AUDIO
TITLE "Never Let Go (Single Version) *"
INDEX 01 39:08:13
TRACK 09 AUDIO
TITLE "Homage To The God Of Light (Recorded Live at Marquee Club, 29-10-1974) *"
INDEX 01 42:48:33
[свернуть]

Лог проверки качества

AUDIOCHECKER v2.0 beta (build 457) - by Dester - [Ссылки могут видеть только зарегистрированные и активированные пользователи.]
[Only registered and activated users can see links.]
~~~~~~~~~~~~~~~~~~~~~~~~~~~~~~~~~~
-=== НЕ РЕДАКТИРУЙТЕ ЭТОТ ФАЙЛ! ===-

Путь: ...\1973(2002) - Camel

1 -=- Camel.flac -=- CDDA (99%)

246054548
[свернуть]

Скачать Camel - Camel

[Ссылки могут видеть только зарегистрированные и активированные пользователи.]
[Only registered and activated users can see links.]

password: sergych
[свернуть]
My opinion of release: 9/10
__________________
TAIFUN.Wings of Soul


Последний раз редактировалось sergych, 11.10.2013 в 22:10. Причина: перезаливка
Вверх
Пользователь сказал cпасибо:
TAIFUN (18.02.2011)
  #2
Старый 23.12.2018, 22:42
TAIFUN
Admin
Досье
 
Аватар для TAIFUN
По умолчанию Camel - Camel


1973 (2002) - Camel - Camel




Исполнитель/Artist: Camel
Альбом/Album: Camel
Год/Year: 1973
Ремастеринг/Remaster: 2002
Жанр/Genre: Progressive Rock
Страна/Country: Великобритания
Рекорд-лейбл/Record label: MCA Records / Universal Music
Номер в каталоге/Catalogue #: 8829252
Формат/Format: Free Lossless Audio Codec (*.flac)
Качество/Quality: Lossless
Тип рипа/RIP Type: image+.cue


Продолжительность/Length: 01:01:50
Источник/Source: Собственный рип
Размер/Size: 460 MB

Сканы в комплекте

Треклист

01. Slow Yourself Down
02. Mystic Queen
03. Six Ate
04. Separation
05. Never Let Go
06. Curiosity
07. Arubaluba

Bonus Tracks on 2002 Remaster
08. Never Let Go (Single Version)
09. Homage To The God Of Light (Recorded Live At Marquee Club - 29Th October 1974)
[свернуть]

Превью на YouTube

[свернуть]

Исполнители/Performers

Andrew Latimer – guitar, vocals on "Slow Yourself Down" and "Separation" (tracks 1 and 4)
Peter Bardens – organ, mellotron, piano, VCS 3 synthesizer, vocals on "Never Let Go" (tracks 5 and 8)
Doug Ferguson – bass guitar, vocals on "Mystic Queen" and "Curiosity" (tracks 2 and 6)
Andy Ward – drums, percussion
[свернуть]

EAC лог

Exact Audio Copy V1.3 from 2. September 2016

EAC extraction logfile from 22. December 2018, 23:32

Camel / Camel [8829252]

Used drive : ASUS DRW-24D5MT Adapter: 1 ID: 0

Read mode : Secure
Utilize accurate stream : Yes
Defeat audio cache : Yes
Make use of C2 pointers : No

Read offset correction : 6
Overread into Lead-In and Lead-Out : No
Fill up missing offset samples with silence : Yes
Delete leading and trailing silent blocks : No
Null samples used in CRC calculations : Yes
Used interface : Native Win32 interface for Win NT & 2000

Used output format : Internal WAV Routines
Sample format : 44.100 Hz; 16 Bit; Stereo


TOC of the extracted CD

Track | Start | Length | Start sector | End sector
---------------------------------------------------------
1 | 0:00.00 | 4:47.56 | 0 | 21580
2 | 4:47.56 | 5:37.30 | 21581 | 46885
3 | 10:25.11 | 6:02.42 | 46886 | 74077
4 | 16:27.53 | 3:56.47 | 74078 | 91824
5 | 20:24.25 | 6:23.16 | 91825 | 120565
6 | 26:47.41 | 5:53.09 | 120566 | 147049
7 | 32:40.50 | 6:27.38 | 147050 | 176112
8 | 39:08.13 | 3:40.20 | 176113 | 192632
9 | 42:48.33 | 19:01.23 | 192633 | 278230


Range status and errors

Selected range

Filename D:\Музыка\ROCK\Camel\1973 - Camel\Camel - Camel [8829252].wav

Peak level 98.8 %
Extraction speed 7.8 X
Range quality 99.9 %
Copy CRC B2F4F323
Copy OK

No errors occurred


AccurateRip summary

Track 1 accurately ripped (confidence 123) [4A2FE955] (AR v2)
Track 2 accurately ripped (confidence 126) [AE4686B8] (AR v2)
Track 3 accurately ripped (confidence 123) [049BFA33] (AR v2)
Track 4 accurately ripped (confidence 124) [A3E53227] (AR v2)
Track 5 accurately ripped (confidence 124) [1675C0C2] (AR v2)
Track 6 accurately ripped (confidence 124) [6CEDD5A8] (AR v2)
Track 7 accurately ripped (confidence 124) [88987DFF] (AR v2)
Track 8 accurately ripped (confidence 121) [BAFB2C6B] (AR v2)
Track 9 accurately ripped (confidence 119) [D40F2914] (AR v2)

All tracks accurately ripped

End of status report

---- CUETools DB Plugin V2.1.6

[CTDB TOCID: T7hWEGMlKcnDx4D_47fYi_82ogE-] found
Submit result: T7hWEGMlKcnDx4D_47fYi_82ogE- has been confirmed
Track | CTDB Status
1 | (357/362) Accurately ripped
2 | (357/362) Accurately ripped
3 | (358/362) Accurately ripped
4 | (359/362) Accurately ripped
5 | (356/362) Accurately ripped
6 | (359/362) Accurately ripped
7 | (359/362) Accurately ripped
8 | (359/362) Accurately ripped
9 | (350/362) Accurately ripped


==== Log checksum E3A12F1D7C062F9D0AE7AD808540730F06A36E9B774F0101BA099E2B7FD2A688 ====
[свернуть]

Файл CUE

REM GENRE "Progressive Rock"
REM DATE 1973
REM DISCID 830E7D09
REM COMMENT "ExactAudioCopy v1.3"
PERFORMER "Camel"
TITLE "Camel [8829252]"
REM COMPOSER ""
FILE "Camel - Camel [8829252].flac" WAVE
TRACK 01 AUDIO
TITLE "Slow Yourself Down"
PERFORMER "Camel"
REM COMPOSER ""
INDEX 01 00:00:00
TRACK 02 AUDIO
TITLE "Mystic Queen"
PERFORMER "Camel"
REM COMPOSER ""
INDEX 00 04:46:12
INDEX 01 04:47:56
TRACK 03 AUDIO
TITLE "Six Ate"
PERFORMER "Camel"
REM COMPOSER ""
INDEX 01 10:25:11
TRACK 04 AUDIO
TITLE "Separation"
PERFORMER "Camel"
REM COMPOSER ""
INDEX 00 16:25:25
INDEX 01 16:27:53
TRACK 05 AUDIO
TITLE "Never Let Go"
PERFORMER "Camel"
REM COMPOSER ""
INDEX 00 20:22:25
INDEX 01 20:24:25
TRACK 06 AUDIO
TITLE "Curiosity"
PERFORMER "Camel"
REM COMPOSER ""
INDEX 00 26:45:72
INDEX 01 26:47:41
TRACK 07 AUDIO
TITLE "Arubaluba"
PERFORMER "Camel"
REM COMPOSER ""
INDEX 00 32:39:31
INDEX 01 32:40:50
TRACK 08 AUDIO
TITLE "Never Let Go (Single Version)"
PERFORMER "Camel"
REM COMPOSER ""
INDEX 00 39:04:58
INDEX 01 39:08:13
TRACK 09 AUDIO
TITLE "Homage To The God Of Light (Live)"
PERFORMER "Camel"
REM COMPOSER ""
INDEX 00 42:44:42
INDEX 01 42:48:33
[свернуть]

Лог проверки качества

AUDIOCHECKER v2.0 beta (build 457) - by Dester - [Ссылки могут видеть только зарегистрированные и активированные пользователи.]
[Only registered and activated users can see links.]
~~~~~~~~~~~~~~~~~~~~~~~~~~~~~~~~~~
-=== НЕ РЕДАКТИРУЙТЕ ЭТОТ ФАЙЛ! ===-

Путь: ...\1973 - Camel

1 -=- Camel - Camel [8829252].flac -=- CDDA (99%)

55506932

---- CUETools DB Plugin V2.1.6

[CTDB TOCID: T7hWEGMlKcnDx4D_47fYi_82ogE-] found
Submit result: T7hWEGMlKcnDx4D_47fYi_82ogE- has been confirmed
Track | CTDB Status
1 | (357/362) Accurately ripped
2 | (357/362) Accurately ripped
3 | (358/362) Accurately ripped
4 | (359/362) Accurately ripped
5 | (356/362) Accurately ripped
6 | (359/362) Accurately ripped
7 | (359/362) Accurately ripped
8 | (359/362) Accurately ripped
9 | (350/362) Accurately ripped


==== Log checksum E3A12F1D7C062F9D0AE7AD808540730F06A36E9B774F0101BA099E2B7FD2A688 ====
[свернуть]

Спектр частот

[свернуть]

Скачать Camel - Camel

[Ссылки могут видеть только зарегистрированные и активированные пользователи.]
[Only registered and activated users can see links.]
[свернуть]

Контрольная сумма (хеш-сумма) архива

MD5: baceb3463a4b6c5c7bade1dbaa76eb0f
[свернуть]
My opinion of release: 9/10

Release info RInfo

Tracks 1-8 : 1973 MCA Records
Track 9: 2002 Universla Music

This compilation: 2002 Universal Music
The copyright in these sound recordings is owned by The Decca Record Company Ltd., a division of Universal Music Operations Ltd.

Tracks 1, 3, 4, 5 and 8 piblished by RAK Publishing
Tracks 2, 6, 7 and 9 published by Concorde International Management Consultants Ltd.
Tracks 1 - 8: Produced by Dave Williams
Engineered by Roger Quested
Recorded at Morgan Studios, London
Track 9: Mixed from the original 16 track master tape in November 2001 at the Audio Archiving Company, London by Paschal Byrne and Mark Powell

Tape Research, Reissue Compilation and Production by Mark Powell for Universal Music
Project co-ordination by Andy Street at Universal Music
Remastered by Paschal Byrne at The Audio Archiving Company, London
Design: Phil Smee at Waldo`s Design and Dream Emporium
Original LP sleeve design by Modula
Marquee photos by Barry Plummer


Последний раз редактировалось TAIFUN, 24.12.2018 в 16:20. Причина: Перезалив - добавлен отчёт AudioChecker
Вверх
3 пользователя(ей) сказали cпасибо:
johnsilver (25.12.2018), sergych (25.12.2018), swint68 (24.12.2018)
Похожие темы
Тема Автор Раздел Ответов Последнее сообщение
Биография Camel sergych Rock [FAQ] 0 17.08.2008 11:00
Альбом Camel - I Can See Your House From Here sergych Progressive Rock 0 15.08.2008 21:22
Альбом Camel - Mirage sergych Progressive Rock 0 14.08.2008 05:01


Метки
1973 , camel , progressive rock

Опции темы

Ваши права в разделе
Вы не можете создавать новые темы
Вы не можете отвечать в темах
Вы не можете прикреплять вложения
Вы не можете редактировать свои сообщения

Быстрый переход



Текущее время: 23:49. Часовой пояс GMT +3.
Powered by vBulletin® Version 3.8.10
Copyright ©2000 - 2019, vBulletin Solutions, Inc. Перевод: zCarot
© 2008 - 2019 Taifun With Song
Яндекс.Метрика