TAIFUN With Song
Навигация
Вернуться   TAIFUN With Song > Music (обменник) > Rock > Blues Rock
Расширенный поиск
Blues Rock К концу сороковых годов прошлого столетия в блюзе окончательно обосновалась электрогитара. Трудно сказать, что подтолкнуло многих блюзменов перейти с привычной акустической гитары на электрическую, но блюз с тех пор очень сильно изменился.

А знаете ли Вы, что...
За какие заслуги музыкантов принимают в «Клуб 27»?
«Среди известных рок- и блюз-музыкантов весьма значительна доля тех, кто умер в 27 лет. Именно в этом возрасте почему-то возникает статистическая погрешность, выделяющаяся из нормального распределения. Для таких музыкантов даже приняли название «Клуб 27». В него включают Джима Моррисона, Джими Хендрикса, Дженис Джоплин, Курта Кобейна и Брайана Джонса. В 27 лет умер также легендарный советский рок-музыкант и поэт Александр Башлачёв.»
 
Опции темы

  #1
Старый 10.05.2015, 23:30
sergych
Координатор
Досье
 
Аватар для sergych
Релиз Евгений Маргулис - Продолжение следует


2007 - Евгений Маргулис - Продолжение следует




Исполнитель/Artist: Евгений Маргулис
Альбом/Album: Продолжение следует
Год/Year: 2007
Жанр/Genre: Blues Rock, Blues
Страна/Country: Россия
Рекорд-лейбл/Record label: Союз Мьюзик
Номер в каталоге/Catalogue #: SZCD 5035-07
Формат/Format: Free Lossless Audio Codec (*.flac)
Качество/Quality: Lossless
Тип рипа/RIP Type: image+.cue
Продолжительность/Length: 00:40:00
Источник/Source: Из интернета
Размер/Size: 356.6 MB

Сканы в комплекте

Треклист

01. Мэриджейнимэриэнн
02. Не плачь обо мне
03. Спой со мной
04. Трава
05. Джаз
06. Сакура Катана Сакэ
07. O.K.
08. Неколыбельная
09. Минк-шминк
10. Ангел
[свернуть]

youtube.com

[свернуть]

EAC лог

Exact Audio Copy V0.99 prebeta 5 from 4. May 2009

Отчёт EAC об извлечении, выполненном 13. июля 2009, 17:57

Евгений МАРГУЛИС / Продолжение следует

Дисковод: PLEXTOR DVDR PX-760A Adapter: 7 ID: 0

Режим чтения : Достоверность
Использование точного потока : Да
Отключение кэша аудио : Да
Использование указателей C2 : Нет

Коррекция смещения при чтении : 6
Способность читать области Lead-in и Lead-out : Да
Заполнение пропущенных сэмплов тишиной : Да
Удаление блоков с тишиной в начале и конце : Нет
При вычислениях CRC использовались нулевые сэмплы : Да
Интерфейс : Установленный внешний ASPI-интерфейс

Выходной формат : Пользовательский кодировщик
Выбранный битрейт : 1024 kBit/s
Качество : Высокий
Добавление ID3-тэга : Нет
Утилита сжатия : C:\Program Files\Exact Audio Copy\FLAC\FLAC.EXE
Дополнительные параметры : -6 -V -T "ARTIST=%a" -T "TITLE=%t" -T "ALBUM=%g" -T "DATE=%y" -T "TRACKNUMBER=%n" -T "GENRE=%m" -T "COMMENT=%e" %s -o %d


TOC извлечённого CD

Трек | Старт | Длительность | Начальный сектор | Конечный сектор
---------------------------------------------------------------------
1 | 0:00.00 | 4:32.49 | 0 | 20448
2 | 4:32.49 | 4:52.35 | 20449 | 42383
3 | 9:25.09 | 3:54.69 | 42384 | 60002
4 | 13:20.03 | 3:36.73 | 60003 | 76275
5 | 16:57.01 | 3:50.47 | 76276 | 93572
6 | 20:47.48 | 3:43.58 | 93573 | 110355
7 | 24:31.31 | 3:28.11 | 110356 | 125966
8 | 27:59.42 | 2:56.34 | 125967 | 139200
9 | 30:56.01 | 2:59.33 | 139201 | 152658
10 | 33:55.34 | 6:04.18 | 152659 | 179976


Характеристики диапазона извлечения и сообщения об ошибках

Выбранный диапазон

Имя файла E:\TORRENT\Евгений Маргулис\Евгений МАРГУЛИС - Продолжение следует.wav

Пиковый уровень 100.0 %
Качество диапазона 100.0 %
CRC копии A65308C2
Копирование... OK

Ошибок не произошло

Конец отчёта
[свернуть]

Файл CUE

REM GENRE Blues
REM DATE 2007
REM DISCID 87095F0A
REM COMMENT "ExactAudioCopy v0.99pb5"
PERFORMER "Евгений МАРГУЛИС"
TITLE "Продолжение следует"
FILE "Евгений МАРГУЛИС - Продолжение следует.flac" WAVE
TRACK 01 AUDIO
TITLE "Мэриджейнимэриэнн"
PERFORMER "Евгений МАРГУЛИС"
INDEX 01 00:00:00
TRACK 02 AUDIO
TITLE "Не плачь обо мне"
PERFORMER "Евгений МАРГУЛИС"
INDEX 00 04:30:49
INDEX 01 04:32:49
TRACK 03 AUDIO
TITLE "Спой со мной"
PERFORMER "Евгений МАРГУЛИС"
INDEX 00 09:23:09
INDEX 01 09:25:09
TRACK 04 AUDIO
TITLE "Трава"
PERFORMER "Евгений МАРГУЛИС"
INDEX 00 13:18:03
INDEX 01 13:20:03
TRACK 05 AUDIO
TITLE "Джаз"
PERFORMER "Евгений МАРГУЛИС"
INDEX 00 16:55:01
INDEX 01 16:57:01
TRACK 06 AUDIO
TITLE "Сакура катана сакэ"
PERFORMER "Евгений МАРГУЛИС"
INDEX 00 20:45:48
INDEX 01 20:47:48
TRACK 07 AUDIO
TITLE "O.K."
PERFORMER "Евгений МАРГУЛИС"
INDEX 00 24:29:31
INDEX 01 24:31:31
TRACK 08 AUDIO
TITLE "Неколыбельная"
PERFORMER "Евгений МАРГУЛИС"
INDEX 00 27:57:42
INDEX 01 27:59:42
TRACK 09 AUDIO
TITLE "Минк-шминк"
PERFORMER "Евгений МАРГУЛИС"
INDEX 00 30:54:01
INDEX 01 30:56:01
TRACK 10 AUDIO
TITLE "Ангел"
PERFORMER "Евгений МАРГУЛИС"
INDEX 00 33:53:34
INDEX 01 33:55:34
[свернуть]

Лог проверки качества

AUDIOCHECKER v2.0 beta (build 457) - by Dester -
~~~~~~~~~~~~~~~~~~~~~~~~~~~~~~~~~~
-=== НЕ РЕДАКТИРУЙТЕ ЭТОТ ФАЙЛ! ===-

Путь: ...\2007 - Продолжение следует

1 -=- Евгений МАРГУЛИС - Продолжение следует.flac -=- CDDA (100%)

221502932
[свернуть]

Спектр частот

[свернуть]

Скачать Евгений Маргулис - Продолжение следует



password: sergych
[свернуть]
My opinion of release: 10/10
__________________
TAIFUN.Wings of Soul

Вверх
Похожие темы
Тема Автор Раздел Ответов Последнее сообщение
Релиз Евгений Плыгин - Мой апрель PUPOKIN Шансон 0 26.09.2013 10:07
Релиз Евгений Маргулис - Маргулис sergych Blues Rock 0 08.05.2013 08:38
Сборник Евгений Маргулис - Best... sergych Blues Rock 0 22.04.2013 22:18
Альбом Евгений Осин - В России PUPOKIN Русская Поп-Музыка 0 12.03.2010 10:24
Ирония судьбы. Продолжение SERAF Наше кино 0 20.06.2008 19:02


Метки
2007 , blues , blues rock , евгений маргулис , продолжение следует

Опции темы

Ваши права в разделе
Вы не можете создавать новые темы
Вы не можете отвечать в темах
Вы не можете прикреплять вложения
Вы не можете редактировать свои сообщения

Быстрый переход



Текущее время: 21:09. Часовой пояс GMT +3.
Powered by vBulletin® Version 3.8.10
Copyright ©2000 - 2018, vBulletin Solutions, Inc. Перевод: zCarot
© 2008 - 2018 Taifun With Song
Яндекс.Метрика