TAIFUN With Song
Навигация
Вернуться   TAIFUN With Song > Music (обменник) > Rock > Progressive Rock
Расширенный поиск
Progressive Rock Единственной универсальной характеристикой прогрессивного рока является усложнение музыкальной формы. Это проявляется в удлиннении и усложнении музыкальных пьес, тяготении к циклическим формам академической музыки; расширении репертуара используемых тембров, усложнении метра и ритма, использовании нетрадиционных для рока мелодических и гармонических решений; поэзии, уходящей от тем развлекательной музыки и тяготеющей к философским «вечным темам», фантастической и фентезийной тематике; переплетении с классической и современной академической музыкой, джазом.

А знаете ли Вы, что...
Чья кровь применялась при печати комиксов?
«Участники группы KISS для раскрутки первого комикса о себе сдали кровь и смешали её с красными чернилами в издающей комикс типографии.»
 
Опции темы

  #1
Старый 25.04.2017, 19:00
sergych
Координатор
Досье
 
Аватар для sergych
Thumbs up Emerson, Lake and Palmer - Black Moon


1992 - Emerson, Lake and Palmer - Black Moon




Исполнитель/Artist: Emerson, Lake and Palmer
Альбом/Album: Black Moon
Год/Year: 1992
Жанр/Genre: Rock, progressive rock
Страна/Country: Германия
Рекорд-лейбл/Record label: Victory Music
Номер в каталоге/Catalogue #: 828 318-2
Формат/Format: MPEG Layer-3 (*.mp3)
Качество/Quality: CBR 320 kbps
Тип рипа/RIP Type: image+.cue
Продолжительность/Length: 00:48:54
Источник/Source: Собственный рип
Размер/Size: 186.3 MB

Сканы в комплекте

Треклист

01. Black Moon [0:06:58.73]
02. Paper Blood [0:04:28.65]
03. Affairs Of The Heart [0:03:47.07]
04. Romeo and Juliet [0:03:42.58]
05. Farewell To Arms [0:05:10.42]
06. Changing States [0:06:01.70]
07. Burning Bridges [0:04:46.00]
08. Close To Home [0:04:29.00]
09. Better Days [0:05:36.25]
10. Footprints In The Snow [0:03:52.08]
[свернуть]

youtube.com

[свернуть]

Исполнители/Performers

Keith Emerson - keyboards, piano
Greg Lake - bass, vocals, guitars, harmonica
Carl Palmer - percussion, drums
[свернуть]

Файл CUE

TITLE "Black Moon"
PERFORMER "Emerson, Lake and Palmer"
REM GENRE "Progressive Rock"
REM DATE "1992"
REM DISCNUMBER "1/1"
FILE "Emerson, Lake and Palmer - Black Moon.mp3" MP3
TRACK 01 AUDIO
INDEX 01 00:00:00
TITLE "Black Moon"
REM COMMENT "ExactAudioCopy v1.3"
REM COMPOSER ""
TRACK 02 AUDIO
INDEX 01 06:58:73
TITLE "Paper Blood"
REM COMMENT "ExactAudioCopy v1.3"
REM COMPOSER ""
TRACK 03 AUDIO
INDEX 01 11:27:63
TITLE "Affairs Of The Heart"
REM COMMENT "ExactAudioCopy v1.3"
REM COMPOSER ""
TRACK 04 AUDIO
INDEX 01 15:14:70
TITLE "Romeo and Juliet"
REM COMMENT "ExactAudioCopy v1.3"
REM COMPOSER ""
TRACK 05 AUDIO
INDEX 01 18:57:53
TITLE "Farewell To Arms"
REM COMMENT "ExactAudioCopy v1.3"
REM COMPOSER ""
TRACK 06 AUDIO
INDEX 01 24:08:19
TITLE "Changing States"
REM COMMENT "ExactAudioCopy v1.3"
REM COMPOSER ""
TRACK 07 AUDIO
INDEX 01 30:10:15
TITLE "Burning Bridges"
REM COMMENT "ExactAudioCopy v1.3"
REM COMPOSER ""
TRACK 08 AUDIO
INDEX 01 34:56:14
TITLE "Close To Home"
REM COMMENT "ExactAudioCopy v1.3"
REM COMPOSER ""
TRACK 09 AUDIO
INDEX 01 39:25:15
TITLE "Better Days"
REM COMMENT "ExactAudioCopy v1.3"
REM COMPOSER ""
TRACK 10 AUDIO
INDEX 01 45:01:39
TITLE "Footprints In The Snow"
REM COMMENT "ExactAudioCopy v1.3"
REM COMPOSER ""
[свернуть]

Спектр частот

[свернуть]

Скачать Emerson, Lake and Palmer - Black Moon



password: sergych
[свернуть]

Контрольная сумма (хеш-сумма) архива

MD5: 6000de8564ab69f2a3bacce674cceabe
[свернуть]
My opinion of release: 10/10

Release info RInfo

Восьмой студийник и первый после долгого 14-летнего молчания.

Почему в mp3? Глубокая сквозная царапина и, соответственно, расхождение CRC.
Впрочем, поскольку диск был приобретён "на сдачу", то его состояние не было приоритетной задачей. Тем не менее, после прослушивания, этот студийник у меня попал в список будущих приобретений. Классный альбом!
__________________
TAIFUN.Wings of Soul

Вверх
Пользователь сказал cпасибо:
swint68 (25.04.2017)
Похожие темы
Тема Автор Раздел Ответов Последнее сообщение
Live Lake Of Tears - By The Black Sea PUPOKIN Doom Metal 0 03.02.2014 08:00
Альбом Emerson, Lake & Palmer - Trilogy sergych Progressive Rock 0 02.08.2013 11:05
Альбом Emerson, Lake & Palmer - ELP sergych Progressive Rock 0 27.07.2013 23:39
Альбом Emerson, Lake & Palmer - Pictures At An Exhibition sergych Progressive Rock 0 30.06.2013 16:51
Альбом Delta Moon - Black Cat Oil PUPOKIN Blues Rock 0 09.06.2012 08:53


Метки
1992 , black moon , emerson lake and palmer , progressive rock , rock

Опции темы

Ваши права в разделе
Вы не можете создавать новые темы
Вы не можете отвечать в темах
Вы не можете прикреплять вложения
Вы не можете редактировать свои сообщения

Быстрый переход



Текущее время: 22:38. Часовой пояс GMT +3.
Powered by vBulletin® Version 3.8.10
Copyright ©2000 - 2018, vBulletin Solutions, Inc. Перевод: zCarot
© 2008 - 2018 Taifun With Song
Яндекс.Метрика