TAIFUN With Song
Навигация
Вернуться   TAIFUN With Song > Music (обменник) > Club & Electronic Music > Techno
Расширенный поиск
Techno Techno - крайность танцевальной музыки, которая имеет те же самые ритмические основы, что и другие виды хауса, но использует более интенсивные синтезаторные сэмплы.

А знаете ли Вы, что...
Что значил жест «коза» до эпохи рока и металла?
«Жест «коза» существовал долгое время как магический знак для защиты от сглаза и злых духов. Ронни Джеймс Дио — солист групп Rainbow и Black Sabbath — был первым, кто показал этот жест на рок-концерте. Фанаты переняли его и теперь «коза» очень популярна среди рокеров и металлистов.»
 
Опции темы

  #1
Старый 19.07.2013, 06:57
sergych
Координатор
Досье
 
Аватар для sergych
Релиз Mark 'oh Vs. John Davies - Rebirth


1999 - Mark 'oh Vs. John Davies - Rebirth




Исполнитель/Artist: Mark 'oh Vs. John Davies
Альбом/Album: Rebirth
Год/Year: 1999
Жанр/Genre: Techno, Eurodance
Страна/Country: EU
Рекорд-лейбл/Record label: Orbit Records
Номер в каталоге/Catalogue #: 8 96407 2
Формат/Format: Free Lossless Audio Codec (*.flac)
Качество/Quality: Lossless
Тип рипа/RIP Type: tracks+.cue
Продолжительность/Length: 00:11:12
Источник/Source: Собственный рип
Размер/Size: 99.8 MB

Сканы в комплекте

Треклист

01 - Rebirth (Short Mix)
02 - Rebirth (Long Mix)
03 - Tomorrow Never Comes (Short Mix)
[свернуть]

youtube.com

[свернуть]

EAC лог

Exact Audio Copy V1.0 beta 3 from 29. August 2011

EAC extraction logfile from 18. July 2013, 20:03

Mark 'oh Vs. John Davies / Rebirth

Used drive : ATAPI iHAS124 D Adapter: 0 ID: 2

Read mode : Secure
Utilize accurate stream : Yes
Defeat audio cache : Yes
Make use of C2 pointers : No

Read offset correction : 6
Overread into Lead-In and Lead-Out : No
Fill up missing offset samples with silence : Yes
Delete leading and trailing silent blocks : No
Null samples used in CRC calculations : Yes
Used interface : Installed external ASPI interface
Gap handling : Appended to previous track

Used output format : User Defined Encoder
Selected bitrate : 1024 kBit/s
Quality : High
Add ID3 tag : No
Command line compressor : C:\Program Files (x86)\Exact Audio Copy\FLAC\FLAC.EXE
Additional command line options : -6 -V -T "ARTIST=%artist%" -T "TITLE=%title%" -T "ALBUM=%albumtitle%" -T "DATE=%year%" -T "TRACKNUMBER=%tracknr%" -T "GENRE=%genre%" -T "COMMENT=%comment%" -T "BAND=%albuminterpret%" -T "ALBUMARTIST=%albuminterpret%" -T "COMPOSER=%composer%" %haslyrics%--tag-from-file=LYRICS="%lyricsfile%"%haslyrics% -T "DISCNUMBER=%cdnumber%" -T "TOTALDISCS=%totalcds%" -T "TOTALTRACKS=%numtracks%" %hascover%--picture="%coverfile%"%hascover% %source% -o %dest%


TOC of the extracted CD

Track | Start | Length | Start sector | End sector
---------------------------------------------------------
1 | 0:00.00 | 3:16.74 | 0 | 14773
2 | 3:16.74 | 4:38.66 | 14774 | 35689
3 | 7:55.65 | 3:22.22 | 35690 | 50861


Track 1

Filename C:\mm\Mark 'oh\1999 - Mark 'oh Vs. John Davies - Rebirth\01 - Rebirth (Short Mix).wav

Pre-gap length 0:00:02.00

Peak level 98.0 %
Extraction speed 5.3 X
Track quality 100.0 %
Test CRC 02BF8E79
Copy CRC 02BF8E79
Track not present in AccurateRip database
Copy OK

Track 2

Filename C:\mm\Mark 'oh\1999 - Mark 'oh Vs. John Davies - Rebirth\02 - Rebirth (Long Mix).wav

Pre-gap length 0:00:03.00

Peak level 99.6 %
Extraction speed 5.3 X
Track quality 99.9 %
Test CRC 160921A8
Copy CRC 160921A8
Track not present in AccurateRip database
Copy OK

Track 3

Filename C:\mm\Mark 'oh\1999 - Mark 'oh Vs. John Davies - Rebirth\03 - Tomorrow Never Comes (Short Mix).wav

Pre-gap length 0:00:03.00

Peak level 98.0 %
Extraction speed 6.3 X
Track quality 100.0 %
Test CRC F2BB4982
Copy CRC F2BB4982
Track not present in AccurateRip database
Copy OK


None of the tracks are present in the AccurateRip database

No errors occurred

End of status report
[свернуть]

Файл CUE

REM GENRE "Techno /Trance"
REM DATE 1999
REM DISCID 2602A603
REM COMMENT "ExactAudioCopy v1.0b3"
PERFORMER "Mark 'oh Vs. John Davies"
TITLE "Rebirth"
FILE "01 - Rebirth (Short Mix).wav" WAVE
TRACK 01 AUDIO
TITLE "Rebirth (Short Mix)"
PERFORMER "Mark 'oh Vs. John Davies"
INDEX 01 00:00:00
TRACK 02 AUDIO
TITLE "Rebirth (Long Mix)"
PERFORMER "Mark 'oh Vs. John Davies"
INDEX 00 03:13:74
FILE "02 - Rebirth (Long Mix).wav" WAVE
INDEX 01 00:00:00
TRACK 03 AUDIO
TITLE "Tomorrow Never Comes (Short Mix)"
PERFORMER "Mark 'oh Vs. John Davies"
INDEX 00 04:35:66
FILE "03 - Tomorrow Never Comes (Short Mix).wav" WAVE
INDEX 01 00:00:00
[свернуть]

Лог проверки качества

AUDIOCHECKER v2.0 beta (build 457) - by Dester -
~~~~~~~~~~~~~~~~~~~~~~~~~~~~~~~~~~
-=== НЕ РЕДАКТИРУЙТЕ ЭТОТ ФАЙЛ! ===-

Путь: ...\1999 - Mark 'oh Vs. John Davies - Rebirth

1 -=- 01 - Rebirth (Short Mix).flac -=- CDDA (100%)
2 -=- 02 - Rebirth (Long Mix).flac -=- CDDA (100%)
3 -=- 03 - Tomorrow Never Comes (Short Mix).flac -=- CDDA (100%)

Сводка 100,00% CDDA

88280756
[свернуть]

Скачать Mark 'oh Vs. John Davies - Rebirth



password: sergych
[свернуть]
My opinion of release: 6/10

Release info RInfo

Не мой стиль, поэтому моя оценка низкая. Просто автор запомнился, в своё время, по "Fade To Grey"
__________________
TAIFUN.Wings of Soul

Вверх
Пользователь сказал cпасибо:
aheron (26.07.2013)
Похожие темы
Тема Автор Раздел Ответов Последнее сообщение
Релиз Mary Bridget Davies Group - Wanna Feel Somethin' PUPOKIN Jazz и Blues 0 26.01.2012 08:53
Релиз Lil Wayne - Rebirth PUPOKIN Зарубежный 0 17.12.2009 16:32
Альбом Debbie Davies - Love The Game PUPOKIN Blues Rock 0 24.07.2009 09:19
Альбом Debbie Davies - Homesick For The Road PUPOKIN Blues Rock 0 11.07.2009 13:24
Альбом Rychus Syn - Rebirth ReAl Thrash Metal 0 22.11.2008 16:45


Метки
1999 , eurodance , mark 'oh vs. john davies , rebirth , techno

Опции темы

Ваши права в разделе
Вы не можете создавать новые темы
Вы не можете отвечать в темах
Вы не можете прикреплять вложения
Вы не можете редактировать свои сообщения

Быстрый переход



Текущее время: 07:01. Часовой пояс GMT +3.
Powered by vBulletin® Version 3.8.10
Copyright ©2000 - 2018, vBulletin Solutions, Inc. Перевод: zCarot
© 2008 - 2018 Taifun With Song
Яндекс.Метрика