TAIFUN With Song
Навигация
Jazz и Blues Гибкая ритмика, импровизационное начало, гармонии и мелодии - все это Jazz. Blues - жизнеутверждающая музыка, рожденная из душевной боли

А знаете ли Вы, что...
Какой музыкант одобрил пытки заключённых в Гуантанамо своей музыкой?
«Для пыток заключённых в американской тюрьме на базе Гуантанамо нередко применяли композиции группы Metallica. Вокалист группы Джеймс Хэтфилд в интервью заявил, что не против такого использования музыки: «Мы мучили своих родителей и жён нашей музыкой много лет. Почему бы и не иракцев?».»
 
Опции темы

  #1
Старый 24.12.2008, 14:27
sergych
Координатор
Досье
 
Аватар для sergych
Релиз Louis Armstrong meets Oscar Peterson


1957(1997(2005)) - Louis Armstrong meets Oscar Peterson




Исполнитель/Artist: Louis Armstrong & Oscar Peterson
Альбом/Album: Louis Armstrong meets Oscar Peterson
Год/Year: 1957
Ремастеринг/Remaster: 1997
Жанр/Genre: Jazz
Страна/Country: Германия
Рекорд-лейбл/Record label: Verve
Номер в каталоге/Catalogue #: 0602498840283
Формат/Format: Free Lossless Audio Codec (*.flac)
Качество/Quality: Lossless
Тип рипа/RIP Type: image+.cue
Продолжительность/Length: 01:14:30
Источник/Source: Собственный рип
Размер/Size: 438.5 MB

Сканы в комплекте

Треклист

01. That Old Feeling [0:02:47.03]
02. Let's Fall In Love [0:03:19.70]
03. I'll Never Be The Same [0:03:33.60]
04. Blues In The Night (My Mama Done Tol' Me) [0:05:17.47]
05. How Long Has This Been Going On [0:06:01.73]
06. I Was Doing All Right [0:03:25.17]
07. What's New [0:02:43.38]
08. Moon Song [0:04:37.00]
09. Just One Of Those Things [0:04:06.37]
10. There's No You [0:02:19.00]
11. You Go To My Head [0:06:27.73]
12. Sweet Lorraine [0:05:26.70]

Bonus tracks
13. I Get A Kick Out Of You [0:04:19.12]
14. Makin' Whoopee [0:03:59.43]
15. Willow Weep For Me [0:04:19.45]
16. Let's Do It [0:11:45.35]
[свернуть]

youtube.com

[свернуть]

Исполнители/Performers

Louis Armstrong – trumpet, vocals
Oscar Peterson – piano
Herb Ellis – guitar
Ray Brown – double bass
Louie Bellson – drums
[свернуть]

EAC лог

Exact Audio Copy V1.3 from 2. September 2016

EAC extraction logfile from 6. June 2018, 23:29

Louis Armstrong & Oscar Peterson / Louis Armstrong Meets Oscar Peterson

Used drive : ATAPI iHAS124 D Adapter: 0 ID: 2

Read mode : Secure
Utilize accurate stream : Yes
Defeat audio cache : Yes
Make use of C2 pointers : No

Read offset correction : 6
Overread into Lead-In and Lead-Out : No
Fill up missing offset samples with silence : Yes
Delete leading and trailing silent blocks : No
Null samples used in CRC calculations : Yes
Used interface : Installed external ASPI interface

Used output format : User Defined Encoder
Selected bitrate : 1024 kBit/s
Quality : High
Add ID3 tag : No
Command line compressor : C:\Program Files (x86)\Exact Audio Copy\Flac\flac.exe
Additional command line options : -6 -V -T "ARTIST=%artist%" -T "TITLE=%title%" -T "ALBUM=%albumtitle%" -T "DATE=%year%" -T "TRACKNUMBER=%tracknr%" -T "GENRE=%genre%" -T "COMMENT=%comment%" -T "BAND=%albuminterpret%" -T "ALBUMARTIST=%albuminterpret%" -T "COMPOSER=%composer%" %haslyrics%--tag-from-file=LYRICS="%lyricsfile%"%haslyrics% -T "DISCNUMBER=%cdnumber%" -T "TOTALDISCS=%totalcds%" -T "TOTALTRACKS=%numtracks%" %hascover%--picture="%coverfile%"%hascover% %source% -o %dest%


TOC of the extracted CD

Track | Start | Length | Start sector | End sector
---------------------------------------------------------
1 | 0:00.00 | 2:47.03 | 0 | 12527
2 | 2:47.03 | 3:19.70 | 12528 | 27522
3 | 6:06.73 | 3:33.60 | 27523 | 43557
4 | 9:40.58 | 5:17.47 | 43558 | 67379
5 | 14:58.30 | 6:01.73 | 67380 | 94527
6 | 21:00.28 | 3:25.17 | 94528 | 109919
7 | 24:25.45 | 2:43.38 | 109920 | 122182
8 | 27:09.08 | 4:37.00 | 122183 | 142957
9 | 31:46.08 | 4:06.37 | 142958 | 161444
10 | 35:52.45 | 2:19.00 | 161445 | 171869
11 | 38:11.45 | 6:27.73 | 171870 | 200967
12 | 44:39.43 | 5:26.70 | 200968 | 225487
13 | 50:06.38 | 4:19.12 | 225488 | 244924
14 | 54:25.50 | 3:59.43 | 244925 | 262892
15 | 58:25.18 | 4:19.45 | 262893 | 282362
16 | 62:44.63 | 11:45.35 | 282363 | 335272


Range status and errors

Selected range

Filename C:\mm\Oscar Peterson\1957(1997) - Louis Armstrong meets Oscar Peterson [0602498840283]\Louis Armstrong & Oscar Peterson - Louis Armstrong Meets Oscar Peterson.wav

Peak level 100.0 %
Extraction speed 2.1 X
Range quality 100.0 %
Test CRC C89F9849
Copy CRC C89F9849
Copy OK

No errors occurred

End of status report

---- CUETools DB Plugin V2.1.6

[CTDB TOCID: zBttKcnU90Fk5ddyw6ANtTEFC4A-] found
Submit result: zBttKcnU90Fk5ddyw6ANtTEFC4A- has been confirmed
Track | CTDB Status
1 | (69/69) Accurately ripped
2 | (69/69) Accurately ripped
3 | (68/69) Accurately ripped
4 | (68/69) Accurately ripped
5 | (68/69) Accurately ripped
6 | (69/69) Accurately ripped
7 | (69/69) Accurately ripped
8 | (68/69) Accurately ripped
9 | (67/69) Accurately ripped
10 | (67/69) Accurately ripped
11 | (68/69) Accurately ripped
12 | (68/69) Accurately ripped
13 | (68/69) Accurately ripped
14 | (69/69) Accurately ripped
15 | (66/69) Accurately ripped
16 | (64/69) Accurately ripped
[свернуть]

Файл CUE

REM GENRE Jazz
REM DATE 1957
REM DISCID E4117610
REM COMMENT "ExactAudioCopy v1.3"
PERFORMER "Louis Armstrong & Oscar Peterson"
TITLE "Louis Armstrong Meets Oscar Peterson"
REM COMPOSER ""
FILE "Louis Armstrong & Oscar Peterson - Louis Armstrong Meets Oscar Peterson.flac" WAVE
TRACK 01 AUDIO
TITLE "That Old Feeling"
PERFORMER "Louis Armstrong & Oscar Peterson"
REM COMPOSER ""
INDEX 01 00:00:00
TRACK 02 AUDIO
TITLE "Let's Fall In Love"
PERFORMER "Louis Armstrong & Oscar Peterson"
REM COMPOSER ""
INDEX 00 02:43:08
INDEX 01 02:47:03
TRACK 03 AUDIO
TITLE "I'll Never Be The Same"
PERFORMER "Louis Armstrong & Oscar Peterson"
REM COMPOSER ""
INDEX 00 06:03:28
INDEX 01 06:06:73
TRACK 04 AUDIO
TITLE "Blues In The Night (My Mama Done Tol' Me)"
PERFORMER "Louis Armstrong & Oscar Peterson"
REM COMPOSER ""
INDEX 00 09:37:30
INDEX 01 09:40:58
TRACK 05 AUDIO
TITLE "How Long Has This Been Going On"
PERFORMER "Louis Armstrong & Oscar Peterson"
REM COMPOSER ""
INDEX 00 14:54:07
INDEX 01 14:58:30
TRACK 06 AUDIO
TITLE "I Was Doing All Right"
PERFORMER "Louis Armstrong & Oscar Peterson"
REM COMPOSER ""
INDEX 00 20:57:03
INDEX 01 21:00:28
TRACK 07 AUDIO
TITLE "What's New"
PERFORMER "Louis Armstrong & Oscar Peterson"
REM COMPOSER ""
INDEX 00 24:21:57
INDEX 01 24:25:45
TRACK 08 AUDIO
TITLE "Moon Song"
PERFORMER "Louis Armstrong & Oscar Peterson"
REM COMPOSER ""
INDEX 00 27:05:60
INDEX 01 27:09:08
TRACK 09 AUDIO
TITLE "Just One Of Those Things"
PERFORMER "Louis Armstrong & Oscar Peterson"
REM COMPOSER ""
INDEX 00 31:42:30
INDEX 01 31:46:08
TRACK 10 AUDIO
TITLE "There's No You"
PERFORMER "Louis Armstrong & Oscar Peterson"
REM COMPOSER ""
INDEX 00 35:49:65
INDEX 01 35:52:45
TRACK 11 AUDIO
TITLE "You Go To My Head"
PERFORMER "Louis Armstrong & Oscar Peterson"
REM COMPOSER ""
INDEX 00 38:09:00
INDEX 01 38:11:45
TRACK 12 AUDIO
TITLE "Sweet Lorraine"
PERFORMER "Louis Armstrong & Oscar Peterson"
REM COMPOSER ""
INDEX 00 44:37:23
INDEX 01 44:39:43
TRACK 13 AUDIO
TITLE "I Get A Kick Out Of You"
PERFORMER "Louis Armstrong & Oscar Peterson"
REM COMPOSER ""
INDEX 00 49:51:43
INDEX 01 50:06:38
TRACK 14 AUDIO
TITLE "Makin' Whoopee"
PERFORMER "Louis Armstrong & Oscar Peterson"
REM COMPOSER ""
INDEX 00 54:23:57
INDEX 01 54:25:50
TRACK 15 AUDIO
TITLE "Willow Weep For Me"
PERFORMER "Louis Armstrong & Oscar Peterson"
REM COMPOSER ""
INDEX 00 58:21:68
INDEX 01 58:25:18
TRACK 16 AUDIO
TITLE "Let's Do It"
PERFORMER "Louis Armstrong & Oscar Peterson"
REM COMPOSER ""
INDEX 00 62:42:40
INDEX 01 62:44:63
[свернуть]

Лог проверки качества

AUDIOCHECKER v2.0 beta (build 457) - by Dester -
~~~~~~~~~~~~~~~~~~~~~~~~~~~~~~~~~~
-=== НЕ РЕДАКТИРУЙТЕ ЭТОТ ФАЙЛ! ===-

Путь: ...\1957(1997) - Louis Armstrong meets Oscar Peterson [0602498840283]

1 -=- Louis Armstrong & Oscar Peterson - Louis Armstrong Meets Oscar Peterson.flac -=- CDDA (100%)

192150836
[свернуть]

Спектр частот

[свернуть]

Скачать Louis Armstrong meets Oscar Peterson



password: sergych
[свернуть]

Контрольная сумма (хеш-сумма) архива

MD5: dfe4303733579b3d7d0e3ee4d71198ee
[свернуть]
My opinion of release: 10/10

Release info RInfo

Tracks 1 - 12 , stereo, recorded in Chicago, October 14, 1957.
Tracks 13 - 16, mono, recorded in Los Angeles, July 31, 1957.
Tracks 1 - 12 are from "Louis Armstrong Meets Oscar Peterson".
Tracks 13 - 16 are the four solo vocal performances by Louis Armstrong from the original "Ella and Louis Again" sessions.

Переиздано в 1997 году и перевыпущено в 2005 году
__________________
TAIFUN.Wings of Soul


Последний раз редактировалось sergych, 10.06.2018 в 09:42. Причина: замена потрекового рипа образом
Вверх
3 пользователя(ей) сказали cпасибо:
Показать список поблагодаривших
  #2
Старый 10.06.2018, 09:46
sergych
Координатор
Досье
 
Аватар для sergych
По умолчанию Re: Louis Armstrong meets Oscar Peterson

заменил потрековый рип образом, пересканировал. Удалил первый пост с инетовскими mp3-шками
__________________
TAIFUN.Wings of Soul

Вверх
2 пользователя(ей) сказали cпасибо:
johnsilver (28.06.2018), swint68 (10.06.2018)
  #3
Старый 10.06.2018, 18:59
swint68
Меломан
Досье
 
Аватар для swint68
По умолчанию Re: Louis Armstrong meets Oscar Peterson

Одно слово - шикарно!

Вверх
Пользователь сказал cпасибо:
sergych (10.06.2018)
Похожие темы
Тема Автор Раздел Ответов Последнее сообщение
Альбом Ben Webster & Oscar Peterson - Ben Webster Meets Oscar Peterson sergych Jazz и Blues 1 01.06.2018 17:07
Сборник Louis Armstrong — The Very Best of Louis Armstrong (2 CD) TAIFUN Jazz и Blues 1 23.04.2014 00:14
Альбом Louis Armstrong - Ken burns jazz PUPOKIN Jazz и Blues 0 13.05.2010 09:43
Альбом Count Basie & Oscar Peterson - The Timekeepers (Count Basie Meets Oscar Peterson) sergych Jazz и Blues 0 26.12.2008 04:10
Сборник Louis Armstrong - Gold Collection LUСIAN Jazz и Blues 0 03.05.2008 20:10


Метки
jazz , louis armstrong , oscar peterson , джаз

Опции темы

Ваши права в разделе
Вы не можете создавать новые темы
Вы не можете отвечать в темах
Вы не можете прикреплять вложения
Вы не можете редактировать свои сообщения

Быстрый переход



Текущее время: 11:17. Часовой пояс GMT +3.
Powered by vBulletin® Version 3.8.10
Copyright ©2000 - 2018, vBulletin Solutions, Inc. Перевод: zCarot
© 2008 - 2018 Taifun With Song
Яндекс.Метрика