TAIFUN With Song
Навигация
Вернуться   TAIFUN With Song > Music (обменник) > Rock > Hard Rock
Расширенный поиск
Hard Rock То, что может восприниматься слушателем как «тяжесть» в хард-роке, достигается, в частности, за счет специфического звучания электрогитары (с такими эффектами, как например, дисторшн и овердрайв) и работы ритм-секции. «Классический» хард-рок обрёл формы в конце 1960-х — начале 1970-х годов в Великобритании. Классический хард-рок отличается от хеви-металла более мелодичным звучанием.

А знаете ли Вы, что...
Кто написал чёрный квадрат за четверть века до Малевича?
«Французский писатель и юморист Альфонс Алле за четверть века до Казимира Малевича написал чёрный квадрат — картину под названием «Битва негров в пещере глубокой ночью». Также он почти на семьдесят лет предвосхитил минималистическую музыкальную пьесу из одной тишины «4’33"» Джона Кейджа своим аналогичным произведением «Траурный марш для похорон великого глухого».»
 
Опции темы

  #1
Старый 14.07.2008, 21:46
sergych
Координатор
Досье
 
Аватар для sergych
Релиз AC/DC - Flick Of The Switch

1983 - Flick Of The Switch



Исполнитель/Artist: AC/DC
Альбом/Album: Flick Of The Switch
Год/Year: 1983
Жанр/Genre: Hard rock
Формат/Format: mp3 CBR
Качество/Quality: 192 kbps Stereo
Размер/Size: 53.1 MB
Продолжительность/Length: 00:37:13

Треклист

01 - Rising Power
02 - This House Is On Fire
03 - Flick Of The Switch
04 - Nervous Shakedown
05 - Landslide
06 - Guns For Hire
07 - Deep In The Hole
08 - Bedlam In Belgium
09 - Badlands
10 - Brain Shake
[свернуть]
Все песни содержат текст и обложку

Скачать




Password: sergych
[свернуть]
__________________
TAIFUN.Wings of Soul


Последний раз редактировалось sergych, 24.04.2016 в 13:07. Причина: перезаливка
Вверх
3 пользователя(ей) сказали cпасибо:
Показать список поблагодаривших
  #2
Старый 24.04.2016, 13:08
sergych
Координатор
Досье
 
Аватар для sergych
По умолчанию Re: AC/DC - Flick Of The Switch

перезалито
__________________
TAIFUN.Wings of Soul

Вверх
2 пользователя(ей) сказали cпасибо:
swint68 (28.06.2018), TAIFUN (24.04.2016)
  #3
Старый 25.06.2018, 20:20
sergych
Координатор
Досье
 
Аватар для sergych
Релиз Re: AC/DC - Flick Of The Switch


1983(2003) - Ac/Dc - Flick Of The Switch




Исполнитель/Artist: Ac/Dc
Альбом/Album: Flick Of The Switch
Год/Year: 1983
Ремастеринг/Remaster: 2003
Жанр/Genre: Hard rock
Страна/Country: Австрия
Рекорд-лейбл/Record label: Sony Music
Номер в каталоге/Catalogue #: 510767 2
Формат/Format: Free Lossless Audio Codec (*.flac)
Качество/Quality: Lossless
Тип рипа/RIP Type: image+.cue
Продолжительность/Length: 00:37:10
Источник/Source: Собственный рип
Размер/Size: 330.2 MB

Сканы в комплекте

Треклист

01. Rising Power [0:03:43.59]
02. This House Is On Fire [0:03:23.37]
03. Flick Of The Switch [0:03:13.45]
04. Nervous Shakedown [0:04:27.06]
05. Landslide [0:03:57.57]
06. Guns For Hire [0:03:24.54]
07. Deep In The Hole [0:03:19.38]
08. Bedlam In Belgium [0:03:52.17]
09. Badlands [0:03:38.42]
10. Brain Shake [0:04:09.14]
[свернуть]

youtube.com

[свернуть]

Исполнители/Performers

Brian Johnson – lead vocals
Angus Young – lead guitar
Malcolm Young – rhythm guitar, backing vocals
Cliff Williams – bass guitar, backing vocals
Phil Rudd – drums
[свернуть]

EAC лог

Exact Audio Copy V1.3 from 2. September 2016

EAC extraction logfile from 25. June 2018, 4:30

AC/DC / Flick Of The Switch

Used drive : ATAPI iHAS124 D Adapter: 0 ID: 2

Read mode : Secure
Utilize accurate stream : Yes
Defeat audio cache : Yes
Make use of C2 pointers : No

Read offset correction : 6
Overread into Lead-In and Lead-Out : No
Fill up missing offset samples with silence : Yes
Delete leading and trailing silent blocks : No
Null samples used in CRC calculations : Yes
Used interface : Installed external ASPI interface

Used output format : User Defined Encoder
Selected bitrate : 1024 kBit/s
Quality : High
Add ID3 tag : No
Command line compressor : C:\Program Files (x86)\Exact Audio Copy\Flac\flac.exe
Additional command line options : -6 -V -T "ARTIST=%artist%" -T "TITLE=%title%" -T "ALBUM=%albumtitle%" -T "DATE=%year%" -T "TRACKNUMBER=%tracknr%" -T "GENRE=%genre%" -T "COMMENT=%comment%" -T "BAND=%albuminterpret%" -T "ALBUMARTIST=%albuminterpret%" -T "COMPOSER=%composer%" %haslyrics%--tag-from-file=LYRICS="%lyricsfile%"%haslyrics% -T "DISCNUMBER=%cdnumber%" -T "TOTALDISCS=%totalcds%" -T "TOTALTRACKS=%numtracks%" %hascover%--picture="%coverfile%"%hascover% %source% -o %dest%


TOC of the extracted CD

Track | Start | Length | Start sector | End sector
---------------------------------------------------------
1 | 0:00.00 | 3:43.59 | 0 | 16783
2 | 3:43.59 | 3:23.37 | 16784 | 32045
3 | 7:07.21 | 3:13.45 | 32046 | 46565
4 | 10:20.66 | 4:27.06 | 46566 | 66596
5 | 14:47.72 | 3:57.57 | 66597 | 84428
6 | 18:45.54 | 3:24.54 | 84429 | 99782
7 | 22:10.33 | 3:19.38 | 99783 | 114745
8 | 25:29.71 | 3:52.17 | 114746 | 132162
9 | 29:22.13 | 3:38.42 | 132163 | 148554
10 | 33:00.55 | 4:09.14 | 148555 | 167243


Range status and errors

Selected range

Filename C:\mm\AcDc\1983(2003) - Flick Of The Switch [510767 2]\AcDc - Flick Of The Switch.wav

Peak level 100.0 %
Extraction speed 1.6 X
Range quality 100.0 %
Test CRC 83829D99
Copy CRC 83829D99
Copy OK

No errors occurred

End of status report

---- CUETools DB Plugin V2.1.6

[CTDB TOCID: RZhDvNbalLEYI8wWFWsH9evnCm8-] found
Submit result: RZhDvNbalLEYI8wWFWsH9evnCm8- has been confirmed
Track | CTDB Status
1 | (478/482) Accurately ripped
2 | (479/482) Accurately ripped
3 | (478/482) Accurately ripped
4 | (479/482) Accurately ripped
5 | (478/482) Accurately ripped
6 | (479/482) Accurately ripped
7 | (479/482) Accurately ripped
8 | (479/482) Accurately ripped
9 | (479/482) Accurately ripped
10 | (477/482) Accurately ripped
[свернуть]

Файл CUE

REM GENRE "Hard Rock"
REM DATE 1983
REM DISCID 8108B50A
REM COMMENT "ExactAudioCopy v1.3"
PERFORMER "AC/DC"
TITLE "Flick Of The Switch"
REM COMPOSER ""
FILE "AcDc - Flick Of The Switch.flac" WAVE
TRACK 01 AUDIO
TITLE "Rising Power"
PERFORMER "AC/DC"
REM COMPOSER ""
INDEX 01 00:00:00
TRACK 02 AUDIO
TITLE "This House Is On Fire"
PERFORMER "AC/DC"
REM COMPOSER ""
INDEX 01 03:43:59
TRACK 03 AUDIO
TITLE "Flick Of The Switch"
PERFORMER "AC/DC"
REM COMPOSER ""
INDEX 01 07:07:21
TRACK 04 AUDIO
TITLE "Nervous Shakedown"
PERFORMER "AC/DC"
REM COMPOSER ""
INDEX 01 10:20:66
TRACK 05 AUDIO
TITLE "Landslide"
PERFORMER "AC/DC"
REM COMPOSER ""
INDEX 01 14:47:72
TRACK 06 AUDIO
TITLE "Guns For Hire"
PERFORMER "AC/DC"
REM COMPOSER ""
INDEX 01 18:45:54
TRACK 07 AUDIO
TITLE "Deep In The Hole"
PERFORMER "AC/DC"
REM COMPOSER ""
INDEX 01 22:10:33
TRACK 08 AUDIO
TITLE "Bedlam In Belgium"
PERFORMER "AC/DC"
REM COMPOSER ""
INDEX 01 25:29:71
TRACK 09 AUDIO
TITLE "Badlands"
PERFORMER "AC/DC"
REM COMPOSER ""
INDEX 01 29:22:13
TRACK 10 AUDIO
TITLE "Brain Shake"
PERFORMER "AC/DC"
REM COMPOSER ""
INDEX 01 33:00:55
[свернуть]

Лог проверки качества

AUDIOCHECKER v2.0 beta (build 457) - by Dester -
~~~~~~~~~~~~~~~~~~~~~~~~~~~~~~~~~~
-=== НЕ РЕДАКТИРУЙТЕ ЭТОТ ФАЙЛ! ===-

Путь: ...\1983(2003) - Flick Of The Switch [510767 2]

1 -=- AcDc - Flick Of The Switch.flac -=- CDDA (100%)

137296164
[свернуть]

Спектр частот

[свернуть]

Скачать Ac/Dc - Flick Of The Switch



password: sergych
[свернуть]

Контрольная сумма (хеш-сумма) архива

MD5: bca23bc28f2cd54b4ea25856a20adea4
[свернуть]
My opinion of release: 8/10
__________________
TAIFUN.Wings of Soul


Последний раз редактировалось sergych, 26.06.2018 в 22:02. Причина: поправил ссылку
Вверх
3 пользователя(ей) сказали cпасибо:
Показать список поблагодаривших
  #4
Старый 26.06.2018, 19:34
johnsilver
Меломан
Досье
 
Аватар для johnsilver
По умолчанию Re: AC/DC - Flick Of The Switch

Спасибо за релиз! Не критично конечно, но ссылочку лучше поправить...

Вверх
Пользователь сказал cпасибо:
sergych (26.06.2018)
  #5
Старый 26.06.2018, 22:04
sergych
Координатор
Досье
 
Аватар для sergych
По умолчанию Re: AC/DC - Flick Of The Switch

Цитата: Сообщение от johnsilver Посмотреть сообщение
ссылочку лучше поправить

Спасибо, исправлено
__________________
TAIFUN.Wings of Soul

Вверх
2 пользователя(ей) сказали cпасибо:
johnsilver (26.06.2018), swint68 (28.06.2018)
Похожие темы
Тема Автор Раздел Ответов Последнее сообщение
Релиз Main Switch - Дар PUPOKIN Alternative Metal 0 06.03.2011 09:28
Смертельный удар / Kill Switch (2008) dmitriy89 Боевики/Детективы 0 02.08.2008 21:30
Icicle & Switch - Looking Away / Strange Behaviour DarkDan Drum & Bass 0 26.04.2008 14:29


Метки
1983 , 2003 , ac/dc , blues rock , flick of the switch , hard rock , rock & roll

Опции темы

Ваши права в разделе
Вы не можете создавать новые темы
Вы не можете отвечать в темах
Вы не можете прикреплять вложения
Вы не можете редактировать свои сообщения

Быстрый переход



Текущее время: 21:08. Часовой пояс GMT +3.
Powered by vBulletin® Version 3.8.10
Copyright ©2000 - 2018, vBulletin Solutions, Inc. Перевод: zCarot
© 2008 - 2018 Taifun With Song
Яндекс.Метрика