TAIFUN With Song
Навигация
Вернуться   TAIFUN With Song > Music (обменник) > Другие направления музыки > R&B
Расширенный поиск
R&B Ссылки на музыку в этом стиле

А знаете ли Вы, что...
Как появился псевдоним украинской певицы Ани Лорак?
«Украинская певица Каролина Куек стала известна под псевдонимом Ани Лорак благодаря конкурсу «Утренняя звезда-95». Дело в том, что там уже была заявлена другая российская певица под именем Каролина, поэтому украинке пришлось выйти из положения, написав своё имя наоборот.»
 
Опции темы

  #1
Старый 25.07.2014, 17:17
sergych
Координатор
Досье
 
Аватар для sergych
Релиз The Temptations - To Be Continued...


1986 - The Temptations - To Be Continued...




Исполнитель/Artist: The Temptations
Альбом/Album: To Be Continued...
Год/Year: 1986
Жанр/Genre: R&B, soul, funk, doo-wop, rock and roll
Страна/Country: Япония
Рекорд-лейбл/Record label: Motown / Gordy
Номер в каталоге/Catalogue #: GCD06207GD
Формат/Format: Free Lossless Audio Codec (*.flac)
Качество/Quality: Lossless
Тип рипа/RIP Type: image+.cue
Продолжительность/Length: 00:45:19
Источник/Source: Собственный рип
Размер/Size: 295.7 MB

Сканы в комплекте

Треклист

01. Lady Soul [0:05:04.70]
02. Message To The World [0:04:24.65]
03. To Be Continued [0:05:05.05]
04. Put Us Together Again [0:03:56.17]
05. Someone [0:04:39.38]
06. Girls (They Like It) [0:04:38.20]
07. More Love, Your Love [0:04:22.67]
08. A Fine Mess [0:04:07.55]
09. You're The One [0:04:43.03]
10. Love Me Right [0:04:17.32]
[свернуть]

youtube.com

[свернуть]

EAC лог

Exact Audio Copy V1.0 beta 3 from 29. August 2011

EAC extraction logfile from 24. July 2014, 0:43

The Temptations / To Be Continued...

Used drive : ATAPI iHAS124 D Adapter: 0 ID: 2

Read mode : Secure
Utilize accurate stream : Yes
Defeat audio cache : Yes
Make use of C2 pointers : No

Read offset correction : 6
Overread into Lead-In and Lead-Out : No
Fill up missing offset samples with silence : Yes
Delete leading and trailing silent blocks : No
Null samples used in CRC calculations : Yes
Used interface : Installed external ASPI interface

Used output format : User Defined Encoder
Selected bitrate : 1024 kBit/s
Quality : High
Add ID3 tag : No
Command line compressor : C:\Program Files (x86)\Exact Audio Copy\Flac\flac.exe
Additional command line options : -6 -V -T "ARTIST=%artist%" -T "TITLE=%title%" -T "ALBUM=%albumtitle%" -T "DATE=%year%" -T "TRACKNUMBER=%tracknr%" -T "GENRE=%genre%" -T "COMMENT=%comment%" -T "BAND=%albuminterpret%" -T "COMPOSER=%composer%" %haslyrics%--tag-from-file=LYRICS="%lyricsfile%"%haslyrics% -T "DISCNUMBER=%cdnumber%" -T "TOTALDISCS=%totalcds%" -T "TOTALTRACKS=%numtracks%" %hascover%--picture="%coverfile%"%hascover% %source% -o %dest%


TOC of the extracted CD

Track | Start | Length | Start sector | End sector
---------------------------------------------------------
1 | 0:00.00 | 5:04.70 | 0 | 22869
2 | 5:04.70 | 4:24.65 | 22870 | 42734
3 | 9:29.60 | 5:05.05 | 42735 | 65614
4 | 14:34.65 | 3:56.17 | 65615 | 83331
5 | 18:31.07 | 4:39.38 | 83332 | 104294
6 | 23:10.45 | 4:38.20 | 104295 | 125164
7 | 27:48.65 | 4:22.67 | 125165 | 144881
8 | 32:11.57 | 4:07.55 | 144882 | 163461
9 | 36:19.37 | 4:43.03 | 163462 | 184689
10 | 41:02.40 | 4:17.32 | 184690 | 203996


Range status and errors

Selected range

Filename C:\mm\The Temptations\1986 - To Be Continued... [GCD06207GD]\The Temptations - To Be Continued....wav

Peak level 100.0 %
Extraction speed 8.5 X
Range quality 100.0 %
Test CRC AC84C709
Copy CRC AC84C709
Copy OK

No errors occurred


AccurateRip summary

Track 1 accurately ripped (confidence 2) [9BFB83B5] (AR v1)
Track 2 accurately ripped (confidence 2) [67FA0D6E] (AR v1)
Track 3 accurately ripped (confidence 1) [21584498] (AR v1)
Track 4 accurately ripped (confidence 2) [C359B217] (AR v1)
Track 5 accurately ripped (confidence 2) [E99CDB39] (AR v1)
Track 6 accurately ripped (confidence 2) [EC79D996] (AR v1)
Track 7 accurately ripped (confidence 2) [0E8C5F74] (AR v1)
Track 8 accurately ripped (confidence 2) [DCD67D41] (AR v1)
Track 9 accurately ripped (confidence 1) [A36A550F] (AR v1)
Track 10 accurately ripped (confidence 1) [63BFA275] (AR v1)

All tracks accurately ripped

End of status report
[свернуть]

Файл CUE

REM GENRE Pop
REM DATE 1986
REM DISCID 7C0A9F0A
REM COMMENT "ExactAudioCopy v1.0b3"
PERFORMER "The Temptations"
TITLE "To Be Continued..."
FILE "The Temptations - To Be Continued....flac" WAVE
TRACK 01 AUDIO
TITLE "Lady Soul"
PERFORMER "The Temptations"
INDEX 01 00:00:00
TRACK 02 AUDIO
TITLE "Message To The World"
PERFORMER "The Temptations"
INDEX 00 05:02:25
INDEX 01 05:04:70
TRACK 03 AUDIO
TITLE "To Be Continued"
PERFORMER "The Temptations"
INDEX 00 09:29:00
INDEX 01 09:29:60
TRACK 04 AUDIO
TITLE "Put Us Together Again"
PERFORMER "The Temptations"
INDEX 00 14:30:47
INDEX 01 14:34:65
TRACK 05 AUDIO
TITLE "Someone"
PERFORMER "The Temptations"
INDEX 00 18:29:42
INDEX 01 18:31:07
TRACK 06 AUDIO
TITLE "Girls (They Like It)"
PERFORMER "The Temptations"
INDEX 00 23:08:25
INDEX 01 23:10:45
TRACK 07 AUDIO
TITLE "More Love, Your Love"
PERFORMER "The Temptations"
INDEX 00 27:48:25
INDEX 01 27:48:65
TRACK 08 AUDIO
TITLE "A Fine Mess"
PERFORMER "The Temptations"
INDEX 00 32:11:42
INDEX 01 32:11:57
TRACK 09 AUDIO
TITLE "You're The One"
PERFORMER "The Temptations"
INDEX 00 36:15:50
INDEX 01 36:19:37
TRACK 10 AUDIO
TITLE "Love Me Right"
PERFORMER "The Temptations"
INDEX 00 40:59:00
INDEX 01 41:02:40
[свернуть]

Лог проверки качества

AUDIOCHECKER v2.0 beta (build 457) - by Dester -
~~~~~~~~~~~~~~~~~~~~~~~~~~~~~~~~~~
-=== НЕ РЕДАКТИРУЙТЕ ЭТОТ ФАЙЛ! ===-

Путь: ...\1986 - To Be Continued... [GCD06207GD]

1 -=- The Temptations - To Be Continued....flac -=- CDDA (100%)

1100052
[свернуть]

Спектр частот

[свернуть]

Скачать The Temptations - To Be Continued...



password: sergych
[свернуть]
My opinion of release: 10/10
__________________
TAIFUN.Wings of Soul

Вверх
4 пользователя(ей) сказали cпасибо:
Показать список поблагодаривших
  #2
Старый 07.09.2018, 03:52
antmarobel
Пользователь
Досье
 
Аватар для antmarobel
По умолчанию Re: The Temptations - To Be Continued...

One of the best pop bands I ever heard.

Вверх
Пользователь сказал cпасибо:
TAIFUN (10.09.2018)
Похожие темы
Тема Автор Раздел Ответов Последнее сообщение
Chronicles Continued - The Aftermath DarkDan Drum & Bass 0 21.04.2008 19:21


Метки
1986 , doo-wop , funk , r&b , rock and roll , soul , the temptations , to be continued...

Опции темы

Ваши права в разделе
Вы не можете создавать новые темы
Вы не можете отвечать в темах
Вы не можете прикреплять вложения
Вы не можете редактировать свои сообщения

Быстрый переход



Текущее время: 22:26. Часовой пояс GMT +3.
Powered by vBulletin® Version 3.8.10
Copyright ©2000 - 2018, vBulletin Solutions, Inc. Перевод: zCarot
© 2008 - 2018 Taifun With Song
Яндекс.Метрика