TAIFUN With Song
Навигация
Jazz и Blues Гибкая ритмика, импровизационное начало, гармонии и мелодии - все это Jazz. Blues - жизнеутверждающая музыка, рожденная из душевной боли

А знаете ли Вы, что...
Почему Майкл Джексон получал половину доходов от продаж песен Beatles?
«В 1984 году на аукционе продавались издательские права на песни Beatles. Его выиграл Майкл Джексон, заплатив почти 50 миллионов долларов — больше, чем предлагал сам Пол Маккартни. С этого времени Джексон получал половину доходов от продаж Beatles (другую половину получали авторы песен, главным образом Маккартни). В 1995 году компания Sony выкупила у Джексона половину его прав, так что в последнее время он получал только четверть доходов.»
 
Опции темы

  #1
Старый 27.03.2013, 10:41
sergych
Координатор
Досье
 
Аватар для sergych
Релиз Oscar Peterson - The Song Is You


2004 - Oscar Peterson - The Song Is You




Исполнитель/Artist: Oscar Peterson
Альбом/Album: The Song Is You
Год/Year: 2004
Жанр/Genre: jazz, swing
Страна/Country: Portugal
Рекорд-лейбл/Record label: IMC Music
Формат/Format: MPEG Layer-3 (*.mp3)
Качество/Quality: CBR 320 kbps
Тип рипа/RIP Type: tracks+.cue
Продолжительность/Length: 01:02:25
Источник/Source: Собственный рип
Размер/Size: 147.7 MB

Сканы в комплекте

Треклист

01 - The Song Is You
02 - Tea For Two
03 - Without A Song
04 - I Want To Be Happy
05 - The Lady Is A Tramp
06 - Blue Moon
07 - Lover
08 - John Hardy's Wife
09 - Things Ain't What They Used To Be
10 - I Got It Bad (And That Ain't Good)
11 - Cotton Tail
12 - Rockin' is Rhythm
13 - Somebody Loves Me
14 - Strike Up The Band
15 - I Was Doing All Right
16 - A Foggy Day
17 - Love Walked In
[свернуть]

Исполнители/Performers

Oscar Peterson - piano
Ray Brown - bass
Barney Kessel - guitar
Herb Ellis - guitar
[свернуть]

EAC лог

Exact Audio Copy V1.0 beta 3 from 29. August 2011

EAC extraction logfile from 26. March 2013, 12:06

Oscar Peterson / The Song Is You

Used drive : HL-DT-STDVDRAM GH22NS50 Adapter: 2 ID: 1

Read mode : Burst

Read offset correction : 667
Overread into Lead-In and Lead-Out : No
Fill up missing offset samples with silence : Yes
Delete leading and trailing silent blocks : No
Null samples used in CRC calculations : Yes
Used interface : Installed external ASPI interface
Gap handling : Appended to previous track

Used output format : User Defined Encoder
Selected bitrate : 896 kBit/s
Quality : High
Add ID3 tag : No
Command line compressor : C:\MMProgram\Exact Audio Copy\FLAC\FLAC.EXE
Additional command line options : -6 -V -T "ARTIST=%artist%" -T "TITLE=%title%" -T "ALBUM=%albumtitle%" -T "DATE=%year%" -T "TRACKNUMBER=%tracknr%" -T "GENRE=%genre%" -T "COMMENT=%comment%" -T "BAND=%albuminterpret%" -T "ALBUMARTIST=%albuminterpret%" -T "COMPOSER=%composer%" %haslyrics%--tag-from-file=LYRICS="%lyricsfile%"%haslyrics% -T "DISCNUMBER=%cdnumber%" -T "TOTALDISCS=%totalcds%" -T "TOTALTRACKS=%numtracks%" %hascover%--picture="%coverfile%"%hascover% %source% -o %dest%


TOC of the extracted CD

Track | Start | Length | Start sector | End sector
---------------------------------------------------------
1 | 0:00.00 | 2:27.43 | 0 | 11067
2 | 2:27.43 | 6:09.06 | 11068 | 38748
3 | 8:36.49 | 2:58.01 | 38749 | 52099
4 | 11:34.50 | 5:36.64 | 52100 | 77363
5 | 17:11.39 | 2:56.16 | 77364 | 90579
6 | 20:07.55 | 2:56.56 | 90580 | 103835
7 | 23:04.36 | 7:17.23 | 103836 | 136633
8 | 30:21.59 | 3:23.60 | 136634 | 151918
9 | 33:45.44 | 3:15.10 | 151919 | 166553
10 | 37:00.54 | 3:13.32 | 166554 | 181060
11 | 40:14.11 | 3:52.10 | 181061 | 198470
12 | 44:06.21 | 2:56.26 | 198471 | 211696
13 | 47:02.47 | 3:24.02 | 211697 | 226998
14 | 50:26.49 | 3:16.68 | 226999 | 241766
15 | 53:43.42 | 2:43.52 | 241767 | 254043
16 | 56:27.19 | 3:40.51 | 254044 | 270594
17 | 60:07.70 | 3:06.00 | 270595 | 284544


Track 1

Filename C:\mm\Oscar Peterson\2004 - The Song Is You\01 - The Song Is You.wav

Pre-gap length 0:00:02.00

Peak level 98.2 %
Extraction speed 16.8 X
Test CRC F8FAB31D
Copy CRC 5E9ACDCA
Cannot be verified as accurate (confidence 1) [EF26E9C9], AccurateRip returned [96FCBEAE] (AR v2)
Copy OK

Track 2

Filename C:\mm\Oscar Peterson\2004 - The Song Is You\02 - Tea For Two.wav

Pre-gap length 0:00:03.00

Peak level 95.9 %
Extraction speed 19.1 X
Test CRC 6A90B599
Copy CRC 145DB874
Cannot be verified as accurate (confidence 1) [4949306B], AccurateRip returned [0918532E] (AR v2)
Copy OK

Track 3

Filename C:\mm\Oscar Peterson\2004 - The Song Is You\03 - Without A Song.wav

Pre-gap length 0:00:03.00

Peak level 86.4 %
Extraction speed 20.9 X
Test CRC F4CB3924
Copy CRC F4CB3924
Accurately ripped (confidence 1) [FDD0DF0C] (AR v1)
Copy OK

Track 4

Filename C:\mm\Oscar Peterson\2004 - The Song Is You\04 - I Want To Be Happy.wav

Pre-gap length 0:00:03.00

Peak level 95.4 %
Extraction speed 22.7 X
Test CRC 6DB72266
Copy CRC 6DB72266
Accurately ripped (confidence 1) [8E024117] (AR v1)
Copy OK

Track 5

Filename C:\mm\Oscar Peterson\2004 - The Song Is You\05 - The Lady Is A Tramp.wav

Pre-gap length 0:00:03.00

Peak level 98.8 %
Extraction speed 23.9 X
Test CRC 5BB74C33
Copy CRC 5BB74C33
Accurately ripped (confidence 1) [7DA02EDC] (AR v1)
Copy OK

Track 6

Filename C:\mm\Oscar Peterson\2004 - The Song Is You\06 - Blue Moon.wav

Pre-gap length 0:00:03.00

Peak level 98.8 %
Extraction speed 25.1 X
Test CRC 39DF6324
Copy CRC 39DF6324
Accurately ripped (confidence 1) [06A0E92B] (AR v1)
Copy OK

Track 7

Filename C:\mm\Oscar Peterson\2004 - The Song Is You\07 - Lover.wav

Pre-gap length 0:00:03.00

Peak level 92.1 %
Extraction speed 26.9 X
Test CRC 2141D84C
Copy CRC 2141D84C
Accurately ripped (confidence 1) [52551121] (AR v1)
Copy OK

Track 8

Filename C:\mm\Oscar Peterson\2004 - The Song Is You\08 - John Hardy's Wife.wav

Pre-gap length 0:00:03.00

Peak level 97.8 %
Extraction speed 28.4 X
Test CRC C0E26C04
Copy CRC C0E26C04
Accurately ripped (confidence 1) [E66BFB52] (AR v1)
Copy OK

Track 9

Filename C:\mm\Oscar Peterson\2004 - The Song Is You\09 - Things Ain't What They Used To Be.wav

Pre-gap length 0:00:03.00

Peak level 92.6 %
Extraction speed 29.3 X
Test CRC E0C0A2BC
Copy CRC E0C0A2BC
Accurately ripped (confidence 1) [B6FED606] (AR v1)
Copy OK

Track 10

Filename C:\mm\Oscar Peterson\2004 - The Song Is You\10 - I Got It Bad (And That Ain't Good).wav

Pre-gap length 0:00:03.00

Peak level 91.1 %
Extraction speed 30.2 X
Test CRC 33DD397B
Copy CRC 33DD397B
Accurately ripped (confidence 1) [B0770D6F] (AR v1)
Copy OK

Track 11

Filename C:\mm\Oscar Peterson\2004 - The Song Is You\11 - Cotton Tail.wav

Pre-gap length 0:00:03.00

Peak level 96.0 %
Extraction speed 31.2 X
Test CRC 53BDB4C6
Copy CRC 53BDB4C6
Accurately ripped (confidence 1) [EDC17ADC] (AR v1)
Copy OK

Track 12

Filename C:\mm\Oscar Peterson\2004 - The Song Is You\12 - Rockin' is Rhythm.wav

Pre-gap length 0:00:03.00

Peak level 77.2 %
Extraction speed 31.9 X
Test CRC BB24F4B1
Copy CRC BB24F4B1
Accurately ripped (confidence 1) [7A6ED24B] (AR v1)
Copy OK

Track 13

Filename C:\mm\Oscar Peterson\2004 - The Song Is You\13 - Somebody Loves Me.wav

Pre-gap length 0:00:03.00

Peak level 82.7 %
Extraction speed 32.9 X
Test CRC EED835A1
Copy CRC EED835A1
Accurately ripped (confidence 1) [3C71ACB6] (AR v1)
Copy OK

Track 14

Filename C:\mm\Oscar Peterson\2004 - The Song Is You\14 - Strike Up The Band.wav

Pre-gap length 0:00:03.00

Peak level 80.6 %
Extraction speed 33.5 X
Test CRC FD1D8F26
Copy CRC FD1D8F26
Accurately ripped (confidence 1) [F50602DD] (AR v1)
Copy OK

Track 15

Filename C:\mm\Oscar Peterson\2004 - The Song Is You\15 - I Was Doing All Right.wav

Pre-gap length 0:00:03.00

Peak level 98.2 %
Extraction speed 26.5 X
Test CRC EF99BA17
Copy CRC 2AAF0559
Cannot be verified as accurate (confidence 1) [E7177E35], AccurateRip returned [45C95FCD] (AR v2)
Copy OK

Track 16

Filename C:\mm\Oscar Peterson\2004 - The Song Is You\16 - A Foggy Day.wav

Pre-gap length 0:00:03.00

Peak level 61.9 %
Extraction speed 21.0 X
Test CRC 9E5BEB3F
Copy CRC 9E5BEB3F
Accurately ripped (confidence 1) [8302ABA6] (AR v1)
Copy OK

Track 17

Filename C:\mm\Oscar Peterson\2004 - The Song Is You\17 - Love Walked In.wav

Pre-gap length 0:00:03.00

Peak level 89.8 %
Extraction speed 14.3 X
Test CRC E47F18EB
Copy CRC 93FD511D
Accurately ripped (confidence 1) [FE3AE066] (AR v1)
Copy OK


14 трек(и) скопированы точно
3 трек(и) не удалось проверить на точность

Some tracks could not be verified as accurate

No errors occurred

End of status report
[свернуть]

Файл CUE

REM GENRE Jazz
REM DATE 1952
REM DISCID EC0ED111
REM COMMENT "ExactAudioCopy v1.0b3"
PERFORMER "Oscar Peterson"
TITLE "The Song Is You"
FILE "01 - The Song Is You.wav" WAVE
TRACK 01 AUDIO
TITLE "The Song Is You"
PERFORMER "Oscar Peterson"
INDEX 01 00:00:00
TRACK 02 AUDIO
TITLE "Tea For Two"
PERFORMER "Oscar Peterson"
INDEX 00 02:24:43
FILE "02 - Tea For Two.wav" WAVE
INDEX 01 00:00:00
TRACK 03 AUDIO
TITLE "Without A Song"
PERFORMER "Oscar Peterson"
INDEX 00 06:06:06
FILE "03 - Without A Song.wav" WAVE
INDEX 01 00:00:00
TRACK 04 AUDIO
TITLE "I Want To Be Happy"
PERFORMER "Oscar Peterson"
INDEX 00 02:55:01
FILE "04 - I Want To Be Happy.wav" WAVE
INDEX 01 00:00:00
TRACK 05 AUDIO
TITLE "The Lady Is A Tramp"
PERFORMER "Oscar Peterson"
INDEX 00 05:33:64
FILE "05 - The Lady Is A Tramp.wav" WAVE
INDEX 01 00:00:00
TRACK 06 AUDIO
TITLE "Blue Moon"
PERFORMER "Oscar Peterson"
INDEX 00 02:53:16
FILE "06 - Blue Moon.wav" WAVE
INDEX 01 00:00:00
TRACK 07 AUDIO
TITLE "Lover"
PERFORMER "Oscar Peterson"
INDEX 00 02:53:56
FILE "07 - Lover.wav" WAVE
INDEX 01 00:00:00
TRACK 08 AUDIO
TITLE "John Hardy's Wife"
PERFORMER "Oscar Peterson"
INDEX 00 07:14:23
FILE "08 - John Hardy's Wife.wav" WAVE
INDEX 01 00:00:00
TRACK 09 AUDIO
TITLE "Things Ain't What They Used To Be"
PERFORMER "Oscar Peterson"
INDEX 00 03:20:60
FILE "09 - Things Ain't What They Used To Be.wav" WAVE
INDEX 01 00:00:00
TRACK 10 AUDIO
TITLE "I Got It Bad (And That Ain't Good)"
PERFORMER "Oscar Peterson"
INDEX 00 03:12:10
FILE "10 - I Got It Bad (And That Ain't Good).wav" WAVE
INDEX 01 00:00:00
TRACK 11 AUDIO
TITLE "Cotton Tail"
PERFORMER "Oscar Peterson"
INDEX 00 03:10:32
FILE "11 - Cotton Tail.wav" WAVE
INDEX 01 00:00:00
TRACK 12 AUDIO
TITLE "Rockin' is Rhythm"
PERFORMER "Oscar Peterson"
INDEX 00 03:49:10
FILE "12 - Rockin' is Rhythm.wav" WAVE
INDEX 01 00:00:00
TRACK 13 AUDIO
TITLE "Somebody Loves Me"
PERFORMER "Oscar Peterson"
INDEX 00 02:53:26
FILE "13 - Somebody Loves Me.wav" WAVE
INDEX 01 00:00:00
TRACK 14 AUDIO
TITLE "Strike Up The Band"
PERFORMER "Oscar Peterson"
INDEX 00 03:21:02
FILE "14 - Strike Up The Band.wav" WAVE
INDEX 01 00:00:00
TRACK 15 AUDIO
TITLE "I Was Doing All Right"
PERFORMER "Oscar Peterson"
INDEX 00 03:13:68
FILE "15 - I Was Doing All Right.wav" WAVE
INDEX 01 00:00:00
TRACK 16 AUDIO
TITLE "A Foggy Day"
PERFORMER "Oscar Peterson"
INDEX 00 02:40:52
FILE "16 - A Foggy Day.wav" WAVE
INDEX 01 00:00:00
TRACK 17 AUDIO
TITLE "Love Walked In"
PERFORMER "Oscar Peterson"
INDEX 00 03:37:51
FILE "17 - Love Walked In.wav" WAVE
INDEX 01 00:00:00
[свернуть]

Скачать Oscar Peterson - The Song Is You



password: sergych
[свернуть]
My opinion of release: 10/10
__________________
TAIFUN.Wings of Soul

Вверх
Пользователь сказал cпасибо:
TAIFUN (27.03.2013)
  #2
Старый 10.07.2018, 18:07
sergych
Координатор
Досье
 
Аватар для sergych
Релиз Re: Oscar Peterson - The Song Is You


2004 - Oscar Peterson - The Song Is You




Исполнитель/Artist: Oscar Peterson
Альбом/Album: The Song Is You
Год/Year: 2004
Жанр/Genre: jazz, swing
Страна/Country: Португалия
Рекорд-лейбл/Record label: IMC Music
Номер в каталоге/Catalogue #: 73119
Формат/Format: Free Lossless Audio Codec (*.flac)
Качество/Quality: Lossless
Тип рипа/RIP Type: image+.cue
Продолжительность/Length: 01:03:14
Источник/Source: Собственный рип
Размер/Size: 193.3 MB

Сканы в комплекте

Треклист

01. The Song Is You [0:02:27.43]
02. Tea For Two [0:06:09.06]
03. Without A Song [0:02:58.01]
04. I Want To Be Happy [0:05:36.64]
05. The Lady Is A Tramp [0:02:56.16]
06. Blue Moon [0:02:56.56]
07. Lover [0:07:17.23]
08. John Hardy's Wife [0:03:23.60]
09. Things Ain't What They Used To Be [0:03:15.10]
10. I Got It Bad (And That Ain't Good) [0:03:13.32]
11. Cotton Tail [0:03:52.10]
12. Rockin' is Rhythm [0:02:56.26]
13. Somebody Loves Me [0:03:24.02]
14. Strike Up The Band [0:03:16.68]
15. I Was Doing All Right [0:02:43.52]
16. A Foggy Day [0:03:40.51]
17. Love Walked In [0:03:06.00]
[свернуть]

youtube.com

[свернуть]

Исполнители/Performers

Oscar Peterson - piano
Ray Brown - bass
Barney Kessel, Herb Ellis - guitar
[свернуть]

EAC лог

Exact Audio Copy V1.3 from 2. September 2016

EAC extraction logfile from 9. July 2018, 19:26

Oscar Peterson / The Song Is You

Used drive : ATAPI iHAS124 D Adapter: 0 ID: 2

Read mode : Secure
Utilize accurate stream : Yes
Defeat audio cache : Yes
Make use of C2 pointers : No

Read offset correction : 6
Overread into Lead-In and Lead-Out : No
Fill up missing offset samples with silence : Yes
Delete leading and trailing silent blocks : No
Null samples used in CRC calculations : Yes
Used interface : Installed external ASPI interface

Used output format : User Defined Encoder
Selected bitrate : 1024 kBit/s
Quality : High
Add ID3 tag : No
Command line compressor : C:\Program Files (x86)\Exact Audio Copy\Flac\flac.exe
Additional command line options : -6 -V -T "ARTIST=%artist%" -T "TITLE=%title%" -T "ALBUM=%albumtitle%" -T "DATE=%year%" -T "TRACKNUMBER=%tracknr%" -T "GENRE=%genre%" -T "COMMENT=%comment%" -T "BAND=%albuminterpret%" -T "ALBUMARTIST=%albuminterpret%" -T "COMPOSER=%composer%" %haslyrics%--tag-from-file=LYRICS="%lyricsfile%"%haslyrics% -T "DISCNUMBER=%cdnumber%" -T "TOTALDISCS=%totalcds%" -T "TOTALTRACKS=%numtracks%" %hascover%--picture="%coverfile%"%hascover% %source% -o %dest%


TOC of the extracted CD

Track | Start | Length | Start sector | End sector
---------------------------------------------------------
1 | 0:00.00 | 2:27.43 | 0 | 11067
2 | 2:27.43 | 6:09.06 | 11068 | 38748
3 | 8:36.49 | 2:58.01 | 38749 | 52099
4 | 11:34.50 | 5:36.64 | 52100 | 77363
5 | 17:11.39 | 2:56.16 | 77364 | 90579
6 | 20:07.55 | 2:56.56 | 90580 | 103835
7 | 23:04.36 | 7:17.23 | 103836 | 136633
8 | 30:21.59 | 3:23.60 | 136634 | 151918
9 | 33:45.44 | 3:15.10 | 151919 | 166553
10 | 37:00.54 | 3:13.32 | 166554 | 181060
11 | 40:14.11 | 3:52.10 | 181061 | 198470
12 | 44:06.21 | 2:56.26 | 198471 | 211696
13 | 47:02.47 | 3:24.02 | 211697 | 226998
14 | 50:26.49 | 3:16.68 | 226999 | 241766
15 | 53:43.42 | 2:43.52 | 241767 | 254043
16 | 56:27.19 | 3:40.51 | 254044 | 270594
17 | 60:07.70 | 3:06.00 | 270595 | 284544


Range status and errors

Selected range

Filename C:\mm\Oscar Peterson\2004 - The Song Is You [73119]\Oscar Peterson - The Song Is You.wav

Peak level 98.8 %
Extraction speed 1.9 X
Range quality 100.0 %
Test CRC A46E5AC2
Copy CRC A46E5AC2
Copy OK

No errors occurred

End of status report

---- CUETools DB Plugin V2.1.6

[CTDB TOCID: eOfpMaPM2caw61SFZNYgC6vPav8-] found
Submit result: eOfpMaPM2caw61SFZNYgC6vPav8- has been confirmed
Track | CTDB Status
1 | (3/3) Accurately ripped
2 | (3/3) Accurately ripped
3 | (3/3) Accurately ripped
4 | (3/3) Accurately ripped
5 | (3/3) Accurately ripped
6 | (3/3) Accurately ripped
7 | (3/3) Accurately ripped
8 | (3/3) Accurately ripped
9 | (3/3) Accurately ripped
10 | (3/3) Accurately ripped
11 | (3/3) Accurately ripped
12 | (3/3) Accurately ripped
13 | (3/3) Accurately ripped
14 | (3/3) Accurately ripped
15 | (3/3) Accurately ripped
16 | (3/3) Accurately ripped
17 | (2/3) Accurately ripped
[свернуть]

Файл CUE

REM GENRE Jazz
REM DATE 1952
REM DISCID EC0ED111
REM COMMENT "ExactAudioCopy v1.3"
PERFORMER "Oscar Peterson"
TITLE "The Song Is You"
REM COMPOSER ""
FILE "Oscar Peterson - The Song Is You.flac" WAVE
TRACK 01 AUDIO
TITLE "The Song Is You"
PERFORMER "Oscar Peterson"
REM COMPOSER ""
INDEX 01 00:00:00
TRACK 02 AUDIO
TITLE "Tea For Two"
PERFORMER "Oscar Peterson"
REM COMPOSER ""
INDEX 00 02:24:43
INDEX 01 02:27:43
TRACK 03 AUDIO
TITLE "Without A Song"
PERFORMER "Oscar Peterson"
REM COMPOSER ""
INDEX 00 08:33:49
INDEX 01 08:36:49
TRACK 04 AUDIO
TITLE "I Want To Be Happy"
PERFORMER "Oscar Peterson"
REM COMPOSER ""
INDEX 00 11:31:50
INDEX 01 11:34:50
TRACK 05 AUDIO
TITLE "The Lady Is A Tramp"
PERFORMER "Oscar Peterson"
REM COMPOSER ""
INDEX 00 17:08:39
INDEX 01 17:11:39
TRACK 06 AUDIO
TITLE "Blue Moon"
PERFORMER "Oscar Peterson"
REM COMPOSER ""
INDEX 00 20:04:55
INDEX 01 20:07:55
TRACK 07 AUDIO
TITLE "Lover"
PERFORMER "Oscar Peterson"
REM COMPOSER ""
INDEX 00 23:01:36
INDEX 01 23:04:36
TRACK 08 AUDIO
TITLE "John Hardy's Wife"
PERFORMER "Oscar Peterson"
REM COMPOSER ""
INDEX 00 30:18:59
INDEX 01 30:21:59
TRACK 09 AUDIO
TITLE "Things Ain't What They Used To Be"
PERFORMER "Oscar Peterson"
REM COMPOSER ""
INDEX 00 33:42:44
INDEX 01 33:45:44
TRACK 10 AUDIO
TITLE "I Got It Bad (And That Ain't Good)"
PERFORMER "Oscar Peterson"
REM COMPOSER ""
INDEX 00 36:57:54
INDEX 01 37:00:54
TRACK 11 AUDIO
TITLE "Cotton Tail"
PERFORMER "Oscar Peterson"
REM COMPOSER ""
INDEX 00 40:11:11
INDEX 01 40:14:11
TRACK 12 AUDIO
TITLE "Rockin' is Rhythm"
PERFORMER "Oscar Peterson"
REM COMPOSER ""
INDEX 00 44:03:21
INDEX 01 44:06:21
TRACK 13 AUDIO
TITLE "Somebody Loves Me"
PERFORMER "Oscar Peterson"
REM COMPOSER ""
INDEX 00 46:59:47
INDEX 01 47:02:47
TRACK 14 AUDIO
TITLE "Strike Up The Band"
PERFORMER "Oscar Peterson"
REM COMPOSER ""
INDEX 00 50:23:49
INDEX 01 50:26:49
TRACK 15 AUDIO
TITLE "I Was Doing All Right"
PERFORMER "Oscar Peterson"
REM COMPOSER ""
INDEX 00 53:40:42
INDEX 01 53:43:42
TRACK 16 AUDIO
TITLE "A Foggy Day"
PERFORMER "Oscar Peterson"
REM COMPOSER ""
INDEX 00 56:24:19
INDEX 01 56:27:19
TRACK 17 AUDIO
TITLE "Love Walked In"
PERFORMER "Oscar Peterson"
REM COMPOSER ""
INDEX 00 60:04:70
INDEX 01 60:07:70
[свернуть]

Лог проверки качества

AUDIOCHECKER v2.0 beta (build 457) - by Dester -
~~~~~~~~~~~~~~~~~~~~~~~~~~~~~~~~~~
-=== НЕ РЕДАКТИРУЙТЕ ЭТОТ ФАЙЛ! ===-

Путь: ...\2004 - The Song Is You [73119]

1 -=- Oscar Peterson - The Song Is You.flac -=- CDDA (100%)

177707620
[свернуть]

Спектр частот

[свернуть]

Скачать Oscar Peterson - The Song Is You



password: sergych
[свернуть]

Контрольная сумма (хеш-сумма) архива

MD5: fa47131f1cd649be2bdca4444476311c
[свернуть]
My opinion of release: 10/10
__________________
TAIFUN.Wings of Soul

Вверх
2 пользователя(ей) сказали cпасибо:
johnsilver (10.07.2018), swint68 (11.07.2018)
Похожие темы
Тема Автор Раздел Ответов Последнее сообщение
Альбом Oscar Peterson - Plays The Jerome Kern Song Book sergych Jazz и Blues 4 22.06.2018 11:04
Сборник Oscar Peterson - Days Of Wine And Roses / All of Me. Oscar Peterson Best sergych Jazz и Blues 0 29.05.2018 16:17
Сборник Oscar Peterson - Verve Jazz Masters 16. Oscar Peterson sergych Jazz и Blues 0 08.05.2015 21:00
Альбом Oscar Peterson - Oscar Peterson Plays Duke Ellington sergych Jazz и Blues 1 05.03.2015 20:44
Альбом Oscar Peterson - Plays The Cole Porter Song Book sergych Jazz и Blues 0 01.03.2011 14:21


Метки
2004 , jazz , oscar peterson , swing , the song is you

Опции темы

Ваши права в разделе
Вы не можете создавать новые темы
Вы не можете отвечать в темах
Вы не можете прикреплять вложения
Вы не можете редактировать свои сообщения

Быстрый переход



Текущее время: 10:42. Часовой пояс GMT +3.
Powered by vBulletin® Version 3.8.10
Copyright ©2000 - 2018, vBulletin Solutions, Inc. Перевод: zCarot
© 2008 - 2018 Taifun With Song
Яндекс.Метрика