TAIFUN With Song
Навигация
Вернуться   TAIFUN With Song > Music (обменник) > Rock > Hard Rock
Расширенный поиск
Hard Rock То, что может восприниматься слушателем как «тяжесть» в хард-роке, достигается, в частности, за счет специфического звучания электрогитары (с такими эффектами, как например, дисторшн и овердрайв) и работы ритм-секции. «Классический» хард-рок обрёл формы в конце 1960-х — начале 1970-х годов в Великобритании. Классический хард-рок отличается от хеви-металла более мелодичным звучанием.

А знаете ли Вы, что...
Какой отработанный медицинский материал использовался советскими изготовителями кустарных пластинок?
«В СССР для изготовления кустарных пластинок, на которые записывалась нелегальная музыка, широко использовали старые рентгеновские снимки. Их называли «пластинки на костях» или «пластинки на рёбрах». Этот материал обходился бесплатно, медперсонал даже благодарил тех, кто помогал разгружать архивы.»
 
Опции темы

  #1
Старый 14.07.2008, 21:46
sergych
Координатор
Досье
 
Аватар для sergych
Релиз AC/DC - Fly On The Wall

1985 - Fly On The Wall



Исполнитель/Artist: AC/DC
Альбом/Album: Fly On The Wall
Год/Year: 1985
Жанр/Genre: Hard rock
Формат/Format: mp3 CBR
Качество/Quality: 320 kbps Stereo
Размер/Size: 93.1 MB
Продолжительность/Length: 00:40:04

Треклист

01 - Fly On The Wall
02 - Shake Your Foundations
03 - First Blood
04 - Danger
05 - Sink The Pink
06 - Playing With Girls
07 - Stand Up
08 - Hell Or High Water
09 - Back In Business
10 - Send For The Man
[свернуть]
Все песни содержат текст и обложку

Скачать




Password: sergych
[свернуть]
__________________
TAIFUN.Wings of Soul


Последний раз редактировалось sergych, 15.06.2018 в 01:12. Причина: перезаливка с лучшим качеством
Вверх
3 пользователя(ей) сказали cпасибо:
Показать список поблагодаривших
  #2
Старый 24.04.2016, 13:11
sergych
Координатор
Досье
 
Аватар для sergych
По умолчанию Re: AC/DC - Fly On The Wall

перезалито
__________________
TAIFUN.Wings of Soul

Вверх
Пользователь сказал cпасибо:
TAIFUN (24.04.2016)
  #3
Старый 15.06.2018, 01:30
sergych
Координатор
Досье
 
Аватар для sergych
Релиз Re: AC/DC - Fly On The Wall


1985(2003) - AC/DC - Fly On The Wall




Исполнитель/Artist: AC/DC
Альбом/Album: Fly On The Wall
Год/Year: 1985
Ремастеринг/Remaster: 2003
Жанр/Genre: Hard rock
Страна/Country: Австрия
Рекорд-лейбл/Record label: Sony Music
Номер в каталоге/Catalogue #: 510768 2
Формат/Format: Free Lossless Audio Codec (*.flac)
Качество/Quality: Lossless
Тип рипа/RIP Type: image+.cue
Продолжительность/Length: 00:40:30
Источник/Source: Собственный рип
Размер/Size: 367.4 MB

Сканы в комплекте

Треклист

01. Fly On The Wall [0:03:44.19]
02. Shake Your Foundations [0:04:10.44]
03. First Blood [0:03:46.03]
04. Danger [0:04:22.36]
05. Sink The Pink [0:04:15.11]
06. Playing With Girls [0:03:44.71]
07. Stand Up [0:03:53.24]
08. Hell Or High Water [0:04:32.26]
09. Back In Business [0:04:24.28]
10. Send For The Man [0:03:36.66]
[свернуть]

youtube.com

[свернуть]

Исполнители/Performers

Brian Johnson – lead vocals
Angus Young – lead guitar
Malcolm Young – rhythm guitar, backing vocals
Cliff Williams – bass guitar, backing vocals
Simon Wright – drums, percussion
[свернуть]

EAC лог

Exact Audio Copy V1.3 from 2. September 2016

EAC extraction logfile from 14. June 2018, 12:49

AC/DC / Fly On The Wall

Used drive : ATAPI iHAS124 D Adapter: 0 ID: 2

Read mode : Secure
Utilize accurate stream : Yes
Defeat audio cache : Yes
Make use of C2 pointers : No

Read offset correction : 6
Overread into Lead-In and Lead-Out : No
Fill up missing offset samples with silence : Yes
Delete leading and trailing silent blocks : No
Null samples used in CRC calculations : Yes
Used interface : Installed external ASPI interface

Used output format : User Defined Encoder
Selected bitrate : 1024 kBit/s
Quality : High
Add ID3 tag : No
Command line compressor : C:\Program Files (x86)\Exact Audio Copy\Flac\flac.exe
Additional command line options : -6 -V -T "ARTIST=%artist%" -T "TITLE=%title%" -T "ALBUM=%albumtitle%" -T "DATE=%year%" -T "TRACKNUMBER=%tracknr%" -T "GENRE=%genre%" -T "COMMENT=%comment%" -T "BAND=%albuminterpret%" -T "ALBUMARTIST=%albuminterpret%" -T "COMPOSER=%composer%" %haslyrics%--tag-from-file=LYRICS="%lyricsfile%"%haslyrics% -T "DISCNUMBER=%cdnumber%" -T "TOTALDISCS=%totalcds%" -T "TOTALTRACKS=%numtracks%" %hascover%--picture="%coverfile%"%hascover% %source% -o %dest%


TOC of the extracted CD

Track | Start | Length | Start sector | End sector
---------------------------------------------------------
1 | 0:00.00 | 3:44.19 | 0 | 16818
2 | 3:44.19 | 4:10.44 | 16819 | 35612
3 | 7:54.63 | 3:46.03 | 35613 | 52565
4 | 11:40.66 | 4:22.36 | 52566 | 72251
5 | 16:03.27 | 4:15.11 | 72252 | 91387
6 | 20:18.38 | 3:44.71 | 91388 | 108258
7 | 24:03.34 | 3:53.24 | 108259 | 125757
8 | 27:56.58 | 4:32.26 | 125758 | 146183
9 | 32:29.09 | 4:24.28 | 146184 | 166011
10 | 36:53.37 | 3:36.66 | 166012 | 182277


Range status and errors

Selected range

Filename C:\mm\AcDc\1985(2003) - Fly On The Wall [510768 2]\AC,DC - Fly On The Wall.wav

Peak level 100.0 %
Extraction speed 1.6 X
Range quality 100.0 %
Test CRC 71E069EA
Copy CRC 71E069EA
Copy OK

No errors occurred

End of status report

---- CUETools DB Plugin V2.1.6

[CTDB TOCID: nIYtb8fi4abjt9u3rX_pggIrkPg-] found
Submit result: nIYtb8fi4abjt9u3rX_pggIrkPg- has been confirmed
Track | CTDB Status
1 | (641/647) Accurately ripped
2 | (630/647) Accurately ripped, or (4/647) differs in 239 samples @03:03:27-03:03:28, or (7/647) differs in 239 samples @03:03:27-03:03:28
3 | (463/647) Accurately ripped, or (173/647) differs in 1 samples @00:00:04, or (2/647) differs in 751 samples @00:41:10-00:41:11,01:41:10-01:41:11,01:52:51-01:52:52
4 | (639/647) Accurately ripped, or (2/647) differs in 1064 samples @02:51:28-02:51:29,03:08:65-03:08:66,03:45:63-03:45:64,03:57:41-03:57:42
5 | (626/647) Accurately ripped, or (4/647) differs in 270 samples @00:43:10-00:43:11,02:13:22, or (7/647) differs in 268 samples @00:43:10-00:43:11, or (2/647) differs in 528 samples @01:36:56-01:36:57,02:25:55-02:25:56
6 | (449/647) Accurately ripped, or (173/647) differs in 4 samples @00:00:17-00:00:18, or (4/647) differs in 264 samples @01:16:34-01:16:35, or (7/647) differs in 264 samples @01:16:34-01:16:35, or (2/647) differs in 180 samples @01:27:15
7 | (457/647) Accurately ripped, or (173/647) differs in 1 samples @00:00:13, or (4/647) differs in 3 samples @00:14:41, or (2/647) differs in 272 samples @02:06:74-02:07:00
8 | (444/647) Accurately ripped, or (173/647) differs in 1 samples @00:00:15, or (4/647) differs in 242 samples @01:09:44,04:19:42-04:19:43, or (7/647) differs in 240 samples @04:19:42-04:19:43, or (2/647) differs in 683 samples @00:17:61,01:36:52-01:36:53,02:07:02
9 | (449/647) Accurately ripped, or (173/647) differs in 1 samples @00:00:16, or (4/647) differs in 244 samples @01:38:08-01:38:09,01:38:22,02:31:64, or (7/647) differs in 240 samples @01:38:08-01:38:09, or (2/647) differs in 965 samples @01:29:62-01:29:63,02:14:20-02:14:21,02:28:19,02:47:43-02:47:44
10 | (451/647) Accurately ripped, or (173/647) differs in 4 samples @03:23:71,03:24:38,03:24:61,03:25:51, or (4/647) differs in 242 samples @02:05:35-02:05:36,02:28:19, or (7/647) differs in 240 samples @02:05:35-02:05:36
[свернуть]

Файл CUE

REM GENRE "Hard Rock"
REM DATE 1985
REM DISCID 7D097E0A
REM COMMENT "ExactAudioCopy v1.3"
PERFORMER "AC/DC"
TITLE "Fly On The Wall"
REM COMPOSER ""
FILE "AC,DC - Fly On The Wall.flac" WAVE
TRACK 01 AUDIO
TITLE "Fly On The Wall"
PERFORMER "AC/DC"
REM COMPOSER ""
INDEX 01 00:00:00
TRACK 02 AUDIO
TITLE "Shake Your Foundations"
PERFORMER "AC/DC"
REM COMPOSER ""
INDEX 01 03:44:19
TRACK 03 AUDIO
TITLE "First Blood"
PERFORMER "AC/DC"
REM COMPOSER ""
INDEX 01 07:54:63
TRACK 04 AUDIO
TITLE "Danger"
PERFORMER "AC/DC"
REM COMPOSER ""
INDEX 01 11:40:66
TRACK 05 AUDIO
TITLE "Sink The Pink"
PERFORMER "AC/DC"
REM COMPOSER ""
INDEX 01 16:03:27
TRACK 06 AUDIO
TITLE "Playing With Girls"
PERFORMER "AC/DC"
REM COMPOSER ""
INDEX 01 20:18:38
TRACK 07 AUDIO
TITLE "Stand Up"
PERFORMER "AC/DC"
REM COMPOSER ""
INDEX 01 24:03:34
TRACK 08 AUDIO
TITLE "Hell Or High Water"
PERFORMER "AC/DC"
REM COMPOSER ""
INDEX 01 27:56:58
TRACK 09 AUDIO
TITLE "Back In Business"
PERFORMER "AC/DC"
REM COMPOSER ""
INDEX 01 32:29:09
TRACK 10 AUDIO
TITLE "Send For The Man"
PERFORMER "AC/DC"
REM COMPOSER ""
INDEX 01 36:53:37
[свернуть]

Лог проверки качества

AUDIOCHECKER v2.0 beta (build 457) - by Dester -
~~~~~~~~~~~~~~~~~~~~~~~~~~~~~~~~~~
-=== НЕ РЕДАКТИРУЙТЕ ЭТОТ ФАЙЛ! ===-

Путь: ...\1985(2003) - Fly On The Wall [510768 2]

1 -=- AC,DC - Fly On The Wall.flac -=- CDDA (100%)

9141924
[свернуть]

Спектр частот

[свернуть]

Скачать AC/DC - Fly On The Wall



password: sergych
[свернуть]

Контрольная сумма (хеш-сумма) архива

MD5: 4c85c187608d7b7014894584c5508768
[свернуть]
My opinion of release: 9/10
__________________
TAIFUN.Wings of Soul

Вверх
2 пользователя(ей) сказали cпасибо:
johnsilver (15.06.2018), swint68 (17.06.2018)
Похожие темы
Тема Автор Раздел Ответов Последнее сообщение
Релиз Wig Wam - Wall Street PUPOKIN Hard Rock 0 19.05.2012 09:24
Релиз Ryan Wall - Sleep PUPOKIN Progressive Metal 0 22.10.2011 10:26
Саундтрек WALL-E LUСIAN Саундтреки 0 03.02.2009 00:50
ВАЛЛ·И / WALL·E dmitriy89 Сказки/Мультфильмы 2 02.11.2008 17:18
Apex - Wall Of Sound EP DarkDan Drum & Bass 0 16.05.2008 14:38


Метки
1985 , 2003 , ac/dc , blues rock , hard rock , rock & roll

Опции темы

Ваши права в разделе
Вы не можете создавать новые темы
Вы не можете отвечать в темах
Вы не можете прикреплять вложения
Вы не можете редактировать свои сообщения

Быстрый переход



Текущее время: 20:34. Часовой пояс GMT +3.
Powered by vBulletin® Version 3.8.10
Copyright ©2000 - 2018, vBulletin Solutions, Inc. Перевод: zCarot
© 2008 - 2018 Taifun With Song
Яндекс.Метрика