TAIFUN With Song
Навигация
Вернуться   TAIFUN With Song > Music (обменник) > Другие направления музыки > Jazz и Blues
Расширенный поиск
Jazz и Blues Гибкая ритмика, импровизационное начало, гармонии и мелодии - все это Jazz. Blues - жизнеутверждающая музыка, рожденная из душевной боли

А знаете ли Вы, что...
Почему американская полиция однажды решила, что одну из радиостанций захватили террористы Саддама Хусейна?
«В 1991 году радиостанция KLSK FM в американском городе Альбукерке решила сменить формат на классический рок, в связи с чем 24 часа подряд в эфире звучала песня Led Zeppelin «Stairway to Heaven». Дважды на станцию по просьбе взволнованных слушателей приезжала полиция: один человек заявил, что ди-джей, видимо, получил инфаркт, а другой — что радио захватили террористы, ведь фанатом Led Zeppelin является Саддам Хусейн.»
 
Опции темы

  #1
Старый 01.07.2018, 06:41
sergych
Координатор
Досье
 
Аватар для sergych
Релиз Oscar Peterson - ''Planet Jazz'' Series


1999 - Oscar Peterson - ''Planet Jazz'' Series




Исполнитель/Artist: Oscar Peterson
Альбом/Album: ''Planet Jazz'' Series
Год/Year: 1999
Жанр/Genre: Jazz, Swing
Страна/Country: Россия
Рекорд-лейбл/Record label: Sony BMG Music
Номер в каталоге/Catalogue #: 88697324622
Формат/Format: Free Lossless Audio Codec (*.flac)
Качество/Quality: Lossless
Тип рипа/RIP Type: image+.cue
Продолжительность/Length: 00:48:07
Источник/Source: Собственный рип
Размер/Size: 110.8 MB

Сканы в комплекте

Треклист

01. (Back Home Again In) Indiana [0:03:15.03]*
02. Margie [0:02:46.02]*
03. I Surrender Dear [0:03:25.50]*
04. I Don't Stand A Ghost Of A Chance With You [0:03:06.00]*
05. Oscar's Boogie [0:02:46.15]**
06. Smiles [0:02:36.18]**
07. Stairway To The Stars [0:03:07.32]**
08. Poor Butterfly [0:02:49.43]**
09. Oop- Bop Sh-Bam [0:02:58.05]***
10. Sweet Georgia Brown [0:03:05.02]***
11. Sleepy Time Gal [0:03:02.53]***
12. Rockin' In Rhythm [0:03:07.71]***
13. Fine And Dandy [0:02:43.13]****
14. My Heard Stood Still [0:03:28.27]****
15. Somebody Loves Me [0:02:41.28]****
16. At Sundown [0:03:08.07]****
[свернуть]

youtube.com

[свернуть]

Исполнители/Performers

Oscar Peterson - piano
Albert King - bass (1-4)
Mark 'Wilkie' Wilkinson - drums (1-4)
Auston Roberts - bass (5-8), drums (13-16)
Clarence Jones - drums (5-8)
Armand Samson - guitar (9-12)
Bert Brown - bass (9-12)
Robert Verdon - drums (9-12)
Ben Johnson - guitar (13-16)
[свернуть]

EAC лог

Exact Audio Copy V1.3 from 2. September 2016

EAC extraction logfile from 29. June 2018, 14:16

Oscar Peterson / Planet Jazz Series

Used drive : ATAPI iHAS124 D Adapter: 0 ID: 2

Read mode : Secure
Utilize accurate stream : Yes
Defeat audio cache : Yes
Make use of C2 pointers : No

Read offset correction : 6
Overread into Lead-In and Lead-Out : No
Fill up missing offset samples with silence : Yes
Delete leading and trailing silent blocks : No
Null samples used in CRC calculations : Yes
Used interface : Installed external ASPI interface

Used output format : User Defined Encoder
Selected bitrate : 1024 kBit/s
Quality : High
Add ID3 tag : No
Command line compressor : C:\Program Files (x86)\Exact Audio Copy\Flac\flac.exe
Additional command line options : -6 -V -T "ARTIST=%artist%" -T "TITLE=%title%" -T "ALBUM=%albumtitle%" -T "DATE=%year%" -T "TRACKNUMBER=%tracknr%" -T "GENRE=%genre%" -T "COMMENT=%comment%" -T "BAND=%albuminterpret%" -T "ALBUMARTIST=%albuminterpret%" -T "COMPOSER=%composer%" %haslyrics%--tag-from-file=LYRICS="%lyricsfile%"%haslyrics% -T "DISCNUMBER=%cdnumber%" -T "TOTALDISCS=%totalcds%" -T "TOTALTRACKS=%numtracks%" %hascover%--picture="%coverfile%"%hascover% %source% -o %dest%


TOC of the extracted CD

Track | Start | Length | Start sector | End sector
---------------------------------------------------------
1 | 0:00.00 | 3:15.03 | 0 | 14627
2 | 3:15.03 | 2:46.02 | 14628 | 27079
3 | 6:01.05 | 3:25.50 | 27080 | 42504
4 | 9:26.55 | 3:06.00 | 42505 | 56454
5 | 12:32.55 | 2:46.15 | 56455 | 68919
6 | 15:18.70 | 2:36.18 | 68920 | 80637
7 | 17:55.13 | 3:07.32 | 80638 | 94694
8 | 21:02.45 | 2:49.43 | 94695 | 107412
9 | 23:52.13 | 2:58.05 | 107413 | 120767
10 | 26:50.18 | 3:05.02 | 120768 | 134644
11 | 29:55.20 | 3:02.53 | 134645 | 148347
12 | 32:57.73 | 3:07.71 | 148348 | 162443
13 | 36:05.69 | 2:43.13 | 162444 | 174681
14 | 38:49.07 | 3:28.27 | 174682 | 190308
15 | 42:17.34 | 2:41.28 | 190309 | 202411
16 | 44:58.62 | 3:08.07 | 202412 | 216518


Range status and errors

Selected range

Filename C:\mm\Oscar Peterson\1999 - Planet Jazz [88697324622]\Oscar Peterson - Planet Jazz Series.wav

Peak level 99.0 %
Extraction speed 1.7 X
Range quality 100.0 %
Test CRC 75CB4BA8
Copy CRC 75CB4BA8
Copy OK

No errors occurred

End of status report

---- CUETools DB Plugin V2.1.6

[CTDB TOCID: QvRUt0yHFomq25BidNd0zWicYcY-] found
Submit result: QvRUt0yHFomq25BidNd0zWicYcY- has been confirmed
Track | CTDB Status
1 | (11/11) Accurately ripped
2 | (11/11) Accurately ripped
3 | (11/11) Accurately ripped
4 | (11/11) Accurately ripped
5 | (11/11) Accurately ripped
6 | (11/11) Accurately ripped
7 | (11/11) Accurately ripped
8 | (11/11) Accurately ripped
9 | (11/11) Accurately ripped
10 | (11/11) Accurately ripped
11 | (11/11) Accurately ripped
12 | (11/11) Accurately ripped
13 | (11/11) Accurately ripped
14 | (11/11) Accurately ripped
15 | (11/11) Accurately ripped
16 | (11/11) Accurately ripped
[свернуть]

Файл CUE

REM GENRE Jazz
REM DATE 1999
REM DISCID E60B4610
REM COMMENT "ExactAudioCopy v1.3"
PERFORMER "Oscar Peterson"
TITLE "Planet Jazz Series"
REM COMPOSER ""
FILE "Oscar Peterson - Planet Jazz Series.flac" WAVE
TRACK 01 AUDIO
TITLE "(Back Home Again In) Indiana"
PERFORMER "Oscar Peterson"
REM COMPOSER ""
INDEX 01 00:00:00
TRACK 02 AUDIO
TITLE "Margie"
PERFORMER "Oscar Peterson"
REM COMPOSER ""
INDEX 00 03:13:03
INDEX 01 03:15:03
TRACK 03 AUDIO
TITLE "I Surrender Dear"
PERFORMER "Oscar Peterson"
REM COMPOSER ""
INDEX 00 05:59:05
INDEX 01 06:01:05
TRACK 04 AUDIO
TITLE "I Don't Stand A Ghost Of A Chance With You"
PERFORMER "Oscar Peterson"
REM COMPOSER ""
INDEX 00 09:24:55
INDEX 01 09:26:55
TRACK 05 AUDIO
TITLE "Oscar's Boogie"
PERFORMER "Oscar Peterson"
REM COMPOSER ""
INDEX 00 12:30:55
INDEX 01 12:32:55
TRACK 06 AUDIO
TITLE "Smiles"
PERFORMER "Oscar Peterson"
REM COMPOSER ""
INDEX 00 15:16:70
INDEX 01 15:18:70
TRACK 07 AUDIO
TITLE "Stairway To The Stars"
PERFORMER "Oscar Peterson"
REM COMPOSER ""
INDEX 00 17:53:13
INDEX 01 17:55:13
TRACK 08 AUDIO
TITLE "Poor Butterfly"
PERFORMER "Oscar Peterson"
REM COMPOSER ""
INDEX 00 21:00:45
INDEX 01 21:02:45
TRACK 09 AUDIO
TITLE "Oop- Bop Sh-Bam"
PERFORMER "Oscar Peterson"
REM COMPOSER ""
INDEX 00 23:50:13
INDEX 01 23:52:13
TRACK 10 AUDIO
TITLE "Sweet Georgia Brown"
PERFORMER "Oscar Peterson"
REM COMPOSER ""
INDEX 00 26:48:18
INDEX 01 26:50:18
TRACK 11 AUDIO
TITLE "Sleepy Time Gal"
PERFORMER "Oscar Peterson"
REM COMPOSER ""
INDEX 00 29:53:20
INDEX 01 29:55:20
TRACK 12 AUDIO
TITLE "Rockin' In Rhythm"
PERFORMER "Oscar Peterson"
REM COMPOSER ""
INDEX 00 32:55:73
INDEX 01 32:57:73
TRACK 13 AUDIO
TITLE "Fine And Dandy"
PERFORMER "Oscar Peterson"
REM COMPOSER ""
INDEX 00 36:03:69
INDEX 01 36:05:69
TRACK 14 AUDIO
TITLE "My Heard Stood Still"
PERFORMER "Oscar Peterson"
REM COMPOSER ""
INDEX 00 38:47:07
INDEX 01 38:49:07
TRACK 15 AUDIO
TITLE "Somebody Loves Me"
PERFORMER "Oscar Peterson"
REM COMPOSER ""
INDEX 00 42:15:34
INDEX 01 42:17:34
TRACK 16 AUDIO
TITLE "At Sundown"
PERFORMER "Oscar Peterson"
REM COMPOSER ""
INDEX 00 44:56:62
INDEX 01 44:58:62
[свернуть]

Лог проверки качества

AUDIOCHECKER v2.0 beta (build 457) - by Dester -
~~~~~~~~~~~~~~~~~~~~~~~~~~~~~~~~~~
-=== НЕ РЕДАКТИРУЙТЕ ЭТОТ ФАЙЛ! ===-

Путь: ...\1999 - Planet Jazz [88697324622]

1 -=- Oscar Peterson - Planet Jazz Series.flac -=- CDDA (99%)

55647316
[свернуть]

Спектр частот

[свернуть]

Скачать Oscar Peterson - ''Planet Jazz'' Series



password: sergych
[свернуть]

Контрольная сумма (хеш-сумма) архива

MD5: 4162caed6d1ab27b03f1058fa02303fa
[свернуть]
My opinion of release: 10/10

Release info RInfo

*Oscar Peterson Trio (Oscar Peterson (p); Albert King (sb); Mark "Wilkie" Wilkinson (d)) Montreal, April 7, 1947
**Oscar Peterson Trio (Oscar Peterson (p); Auston Roberts (sb); Clarence Jones (d)) Montreal, December 15, 1947
***Oscar Peterson Quartet (Oscar Peterson (p); Armand Samson (g); Bert Brown (sb); Roland Verdon (d); one of the band members (v)) Montreal, March 1, 1949
****Oscar Peterson Trio (Oscar Peterson (p); Ben Johnson (g); Auston Roberts (sb)) Montreal, November 14, 1949
__________________
TAIFUN.Wings of Soul

Вверх
Пользователь сказал cпасибо:
johnsilver (02.11.2018)
Похожие темы
Тема Автор Раздел Ответов Последнее сообщение
Сборник Oscar Peterson - Supreme Jazz Collection sergych Jazz и Blues 1 05.07.2018 16:14
Live Oscar Peterson - Paris Jazz Concert sergych Jazz и Blues 0 29.09.2015 01:54
Сборник Oscar Peterson - Verve Jazz Masters 16. Oscar Peterson sergych Jazz и Blues 0 08.05.2015 22:00
Сборник Oscar Peterson - Jazz Manifesto sergych Jazz и Blues 0 28.03.2015 20:39
Сет Oscar Peterson - Exclusively for My Friends series sergych Jazz и Blues 3 14.08.2013 15:01


Метки
''planet jazz'' series , 1999 , jazz , oscar peterson , swing

Опции темы

Ваши права в разделе
Вы не можете создавать новые темы
Вы не можете отвечать в темах
Вы не можете прикреплять вложения
Вы не можете редактировать свои сообщения

Быстрый переход



Текущее время: 19:30. Часовой пояс GMT +3.
Powered by vBulletin® Version 3.8.10
Copyright ©2000 - 2018, vBulletin Solutions, Inc. Перевод: zCarot
© 2008 - 2018 Taifun With Song
Яндекс.Метрика