TAIFUN With Song
Навигация
Вернуться   TAIFUN With Song > Music (обменник) > Rock > Russian Rock
Расширенный поиск
Russian Rock Альбомы рок-групп стран СНГ

А знаете ли Вы, что...
Какой музыкант одобрил пытки заключённых в Гуантанамо своей музыкой?
«Для пыток заключённых в американской тюрьме на базе Гуантанамо нередко применяли композиции группы Metallica. Вокалист группы Джеймс Хэтфилд в интервью заявил, что не против такого использования музыки: «Мы мучили своих родителей и жён нашей музыкой много лет. Почему бы и не иракцев?».»
 
Опции темы

  #1
Старый 21.06.2018, 04:56
sergych
Координатор
Досье
 
Аватар для sergych
Релиз Воскресение - Мы Вас любим


1994(2001) - Воскресение - Мы Вас любим




Исполнитель/Artist: Воскресение
Альбом/Album: Мы Вас любим
Год/Year: 1994
Ремастеринг/Remaster: 2001
Жанр/Genre: rock
Страна/Country: Россия
Рекорд-лейбл/Record label: Bomba Music
Номер в каталоге/Catalogue #: BoMB 02-04
Дата записи/Recording date: 16 июня 1994
Формат/Format: Free Lossless Audio Codec (*.flac)
Качество/Quality: Lossless
Тип рипа/RIP Type: image+.cue
Продолжительность/Length: 01:15:23
Источник/Source: Собственный рип
Размер/Size: 443.8 MB

Сканы в комплекте

Треклист

01. Есть у меня [0:02:58.60]
02. Я тоже был [0:03:21.10]
03. Мчится поезд [0:04:02.50]
04. Сколько было звезд [0:04:21.60]
05. Я ни разу за морем не был [0:03:56.35]
06. Последняя любовь [0:05:01.25]
07. Вера, Надежда, Любовь [0:03:53.20]
08. Радуюсь [0:03:50.15]
09. Делай свое дело [0:03:43.55]
10. В жизни как в темной чаще [0:04:04.55]
11. Все с начала [0:03:47.15]
12. Мне говорили [0:04:03.37]
13. Дороги наши разошлись [0:03:25.58]
14. Друзьям [0:03:53.60]
15. Снилось мне [0:03:48.70]
16. Я привык бродить один [0:04:22.62]
17. Баба [0:03:08.38]
18. По дороге разочарований [0:04:56.20]
19. Кто виноват [0:04:41.60]
[свернуть]

youtube.com

[свернуть]

Исполнители/Performers

Алексей Романов — вокал, гитара
Андрей Сапунов — вокал, бас-гитара, гитара
Алексей Макаревич — соло-гитара
Евгений Маргулис — вокал, бас-гитара, гитара
Михаил Шевяков — ударные
[свернуть]

EAC лог

Exact Audio Copy V1.3 from 2. September 2016

EAC extraction logfile from 20. June 2018, 22:01

Воскресение / Мы Вас любим

Used drive : ATAPI iHAS124 D Adapter: 0 ID: 2

Read mode : Secure
Utilize accurate stream : Yes
Defeat audio cache : Yes
Make use of C2 pointers : No

Read offset correction : 6
Overread into Lead-In and Lead-Out : No
Fill up missing offset samples with silence : Yes
Delete leading and trailing silent blocks : No
Null samples used in CRC calculations : Yes
Used interface : Installed external ASPI interface

Used output format : User Defined Encoder
Selected bitrate : 1024 kBit/s
Quality : High
Add ID3 tag : No
Command line compressor : C:\Program Files (x86)\Exact Audio Copy\Flac\flac.exe
Additional command line options : -6 -V -T "ARTIST=%artist%" -T "TITLE=%title%" -T "ALBUM=%albumtitle%" -T "DATE=%year%" -T "TRACKNUMBER=%tracknr%" -T "GENRE=%genre%" -T "COMMENT=%comment%" -T "BAND=%albuminterpret%" -T "ALBUMARTIST=%albuminterpret%" -T "COMPOSER=%composer%" %haslyrics%--tag-from-file=LYRICS="%lyricsfile%"%haslyrics% -T "DISCNUMBER=%cdnumber%" -T "TOTALDISCS=%totalcds%" -T "TOTALTRACKS=%numtracks%" %hascover%--picture="%coverfile%"%hascover% %source% -o %dest%


TOC of the extracted CD

Track | Start | Length | Start sector | End sector
---------------------------------------------------------
1 | 0:00.00 | 2:58.60 | 0 | 13409
2 | 2:58.60 | 3:21.10 | 13410 | 28494
3 | 6:19.70 | 4:02.50 | 28495 | 46694
4 | 10:22.45 | 4:21.60 | 46695 | 66329
5 | 14:44.30 | 3:56.35 | 66330 | 84064
6 | 18:40.65 | 5:01.25 | 84065 | 106664
7 | 23:42.15 | 3:53.20 | 106665 | 124159
8 | 27:35.35 | 3:50.15 | 124160 | 141424
9 | 31:25.50 | 3:43.55 | 141425 | 158204
10 | 35:09.30 | 4:04.55 | 158205 | 176559
11 | 39:14.10 | 3:47.15 | 176560 | 193599
12 | 43:01.25 | 4:03.37 | 193600 | 211861
13 | 47:04.62 | 3:25.58 | 211862 | 227294
14 | 50:30.45 | 3:53.60 | 227295 | 244829
15 | 54:24.30 | 3:48.70 | 244830 | 261999
16 | 58:13.25 | 4:22.62 | 262000 | 281711
17 | 62:36.12 | 3:08.38 | 281712 | 295849
18 | 65:44.50 | 4:56.20 | 295850 | 318069
19 | 70:40.70 | 4:41.60 | 318070 | 339204


Range status and errors

Selected range

Filename C:\mm\Воскресение\2001 - Мы вас любим [BoMB 02-04]\Воскресение - Мы Вас любим.wav

Peak level 98.2 %
Extraction speed 2.0 X
Range quality 100.0 %
Test CRC 609FE5B1
Copy CRC 609FE5B1
Copy OK

No errors occurred

End of status report

---- CUETools DB Plugin V2.1.6

[CTDB TOCID: aKiSKpy7eYR4n4x7qoF7nL1dxPc-] found
Submit result: aKiSKpy7eYR4n4x7qoF7nL1dxPc- has been confirmed
Track | CTDB Status
1 | (15/15) Accurately ripped
2 | (15/15) Accurately ripped
3 | (15/15) Accurately ripped
4 | (15/15) Accurately ripped
5 | (15/15) Accurately ripped
6 | (15/15) Accurately ripped
7 | (15/15) Accurately ripped
8 | (15/15) Accurately ripped
9 | (15/15) Accurately ripped
10 | (15/15) Accurately ripped
11 | (15/15) Accurately ripped
12 | (15/15) Accurately ripped
13 | (15/15) Accurately ripped
14 | (13/15) Accurately ripped
15 | (12/15) Accurately ripped
16 | (15/15) Accurately ripped
17 | (15/15) Accurately ripped
18 | (15/15) Accurately ripped
19 | (15/15) Accurately ripped
[свернуть]

Файл CUE

REM GENRE Rock
REM DATE 1994
REM DISCID 1611AA13
REM COMMENT "ExactAudioCopy v1.3"
PERFORMER "Воскресение"
TITLE "Мы Вас любим"
REM COMPOSER ""
FILE "Воскресение - Мы Вас любим.flac" WAVE
TRACK 01 AUDIO
TITLE "Есть у меня"
PERFORMER "Воскресение"
REM COMPOSER ""
INDEX 01 00:00:00
TRACK 02 AUDIO
TITLE "Я тоже был"
PERFORMER "Воскресение"
REM COMPOSER ""
INDEX 01 02:58:60
TRACK 03 AUDIO
TITLE "Мчится поезд"
PERFORMER "Воскресение"
REM COMPOSER ""
INDEX 01 06:19:70
TRACK 04 AUDIO
TITLE "Сколько было звезд"
PERFORMER "Воскресение"
REM COMPOSER ""
INDEX 01 10:22:45
TRACK 05 AUDIO
TITLE "Я ни разу за морем не был"
PERFORMER "Воскресение"
REM COMPOSER ""
INDEX 01 14:44:30
TRACK 06 AUDIO
TITLE "Последняя любовь"
PERFORMER "Воскресение"
REM COMPOSER ""
INDEX 01 18:40:65
TRACK 07 AUDIO
TITLE "Вера, Надежда, Любовь"
PERFORMER "Воскресение"
REM COMPOSER ""
INDEX 01 23:42:15
TRACK 08 AUDIO
TITLE "Радуюсь"
PERFORMER "Воскресение"
REM COMPOSER ""
INDEX 01 27:35:35
TRACK 09 AUDIO
TITLE "Делай свое дело"
PERFORMER "Воскресение"
REM COMPOSER ""
INDEX 01 31:25:50
TRACK 10 AUDIO
TITLE "В жизни как в темной чаще"
PERFORMER "Воскресение"
REM COMPOSER ""
INDEX 01 35:09:30
TRACK 11 AUDIO
TITLE "Все с начала"
PERFORMER "Воскресение"
REM COMPOSER ""
INDEX 01 39:14:10
TRACK 12 AUDIO
TITLE "Мне говорили"
PERFORMER "Воскресение"
REM COMPOSER ""
INDEX 01 43:01:25
TRACK 13 AUDIO
TITLE "Дороги наши разошлись"
PERFORMER "Воскресение"
REM COMPOSER ""
INDEX 01 47:04:62
TRACK 14 AUDIO
TITLE "Друзьям"
PERFORMER "Воскресение"
REM COMPOSER ""
INDEX 01 50:30:45
TRACK 15 AUDIO
TITLE "Снилось мне"
PERFORMER "Воскресение"
REM COMPOSER ""
INDEX 01 54:24:30
TRACK 16 AUDIO
TITLE "Я привык бродить один"
PERFORMER "Воскресение"
REM COMPOSER ""
INDEX 01 58:13:25
TRACK 17 AUDIO
TITLE "Баба"
PERFORMER "Воскресение"
REM COMPOSER ""
INDEX 01 62:36:12
TRACK 18 AUDIO
TITLE "По дороге разочарований"
PERFORMER "Воскресение"
REM COMPOSER ""
INDEX 01 65:44:50
TRACK 19 AUDIO
TITLE "Кто виноват"
PERFORMER "Воскресение"
REM COMPOSER ""
INDEX 01 70:40:70
[свернуть]

Лог проверки качества

AUDIOCHECKER v2.0 beta (build 457) - by Dester -
~~~~~~~~~~~~~~~~~~~~~~~~~~~~~~~~~~
-=== НЕ РЕДАКТИРУЙТЕ ЭТОТ ФАЙЛ! ===-

Путь: ...\2001 - Мы вас любим [BoMB 02-04]

1 -=- Воскресение - Мы Вас любим.flac -=- CDDA (99%)

99445108
[свернуть]

Спектр частот

[свернуть]

Скачать Воскресение - Мы Вас любим



password: sergych
[свернуть]

Контрольная сумма (хеш-сумма) архива

MD5: 91807ee41c63dad0c705cf5a0871ccdd
[свернуть]
My opinion of release: 9/10
__________________
TAIFUN.Wings of Soul

Вверх
Похожие темы
Тема Автор Раздел Ответов Последнее сообщение
Альбом Воскресение - 79 sergych Russian Rock 0 18.06.2018 09:22
Релиз Kaizen - Любим делать красиво PUPOKIN Alternative Rock 0 21.12.2011 09:40
Альбом Воскресение - Не торопясь sergych Russian Rock 0 27.05.2011 12:11
Альбом Воскресение - Кто виноват? sergych Russian Rock 0 09.07.2008 21:08


Метки
1994 , 2001 , rock , воскресение , мы вас любим

Опции темы

Ваши права в разделе
Вы не можете создавать новые темы
Вы не можете отвечать в темах
Вы не можете прикреплять вложения
Вы не можете редактировать свои сообщения

Быстрый переход



Текущее время: 12:02. Часовой пояс GMT +3.
Powered by vBulletin® Version 3.8.10
Copyright ©2000 - 2018, vBulletin Solutions, Inc. Перевод: zCarot
© 2008 - 2018 Taifun With Song
Яндекс.Метрика