1
[Альбом] Alannah Myles - Alannah Myles - TAIFUN With Song
TAIFUN With Song
Навигация
Вернуться   TAIFUN With Song > Music (обменник) > Rock > Pop Rock
Расширенный поиск
Pop Rock Поп-рок — жанр музыки, объединяющий элементы поп-музыки и рок-музыки. Песни характеризуются простой структурой, запоминающимися мелодиями, повторением музыкальных фраз (от попа), использованием в качестве основных инструментов электрогитар и ударных и агрессивным настроением (от рока).

А знаете ли Вы, что...
Каким образом Эдит Пиаф помогала бежать из немецких лагерей французским военнопленным?
«Французская певица Эдит Пиаф в период оккупации выступала в лагерях для военнопленных на территории Германии, после которых фотографировалась на память с ними и немецкими офицерами. Затем в Париже лица военнопленных вырезали и вклеивали в фальшивые документы. Пиаф ехала в лагерь с повторным визитом и тайно провозила эти паспорта, с которыми некоторым пленным удавалось бежать.»
 
Опции темы

  #1
Старый 26.05.2018, 17:17
sergych
Координатор
Досье
 
Аватар для sergych
Релиз Alannah Myles - Alannah Myles


1989 - Alannah Myles - Alannah Myles




Исполнитель/Artist: Alannah Myles
Альбом/Album: Alannah Myles
Год/Year: 1989
Жанр/Genre: Rock, pop rock, AOR
Страна/Country: Германия
Рекорд-лейбл/Record label: WEA International
Номер в каталоге/Catalogue #: 7567-81956-2
Формат/Format: Free Lossless Audio Codec (*.flac)
Качество/Quality: Lossless
Тип рипа/RIP Type: image+.cue
Продолжительность/Length: 00:39:17
Источник/Source: Собственный рип
Размер/Size: 263.3 MB

Сканы в комплекте

Треклист

01. Still Got This Thing [0:04:37.62]
02. Love Is [0:03:40.18]
03. Black Velvet [0:04:49.05]
04. Rock This Joint [0:04:02.22]
05. Lover Of Mine [0:04:42.70]
06. Kick Start My Heart [0:03:42.38]
07. If You Want To [0:04:13.20]
08. Just One Kiss [0:03:35.37]
09. Who Loves You [0:03:37.25]
10. Hurry Make Love [0:02:16.33]
[свернуть]

youtube.com

[свернуть]

Исполнители/Performers

Alannah Myles – lead and backing vocals
Kurt Schefter – guitars
David Tyson – keyboards, bass, backing vocals on "Still Got This Thing", producer
Steve Webster – bass on all songs except for "Black Velvet"
Jørn Andersen – drums
David Wipper – acoustic guitar, mandolin
John Johnson – saxophone
Rick Waychesko – trumpet
Michael Sloski – percussion
Roberto Bartolucci – guitar overdubs on "Just One Kiss" and "Lover of Mine"
Scott Humphrey – keyboard programming
Gary Craig – drums on "Who Loves You"
Lisa Dalbello – backing vocals on "Just One Kiss" and "Kick Start My Heart"
Peter Fredette – backing vocals on "Kick Start My Heart" "Rock This Joint" and "If You Want To"
Dean McTaggart – backing vocals on "Kick Start My Heart" and "Rock This Joint"
Jackie Richardson – backing vocals on "Still Got This Thing"
Christopher Ward – backing vocals on "Love Is" and "Still Got This Thing", executive producer
[свернуть]

EAC лог

Exact Audio Copy V1.3 from 2. September 2016

EAC extraction logfile from 25. May 2018, 14:44

Alannah Myles / Alannah Myles

Used drive : ATAPI iHAS124 D Adapter: 0 ID: 2

Read mode : Secure
Utilize accurate stream : Yes
Defeat audio cache : Yes
Make use of C2 pointers : No

Read offset correction : 6
Overread into Lead-In and Lead-Out : No
Fill up missing offset samples with silence : Yes
Delete leading and trailing silent blocks : No
Null samples used in CRC calculations : Yes
Used interface : Installed external ASPI interface

Used output format : User Defined Encoder
Selected bitrate : 1024 kBit/s
Quality : High
Add ID3 tag : No
Command line compressor : C:\Program Files (x86)\Exact Audio Copy\Flac\flac.exe
Additional command line options : -6 -V -T "ARTIST=%artist%" -T "TITLE=%title%" -T "ALBUM=%albumtitle%" -T "DATE=%year%" -T "TRACKNUMBER=%tracknr%" -T "GENRE=%genre%" -T "COMMENT=%comment%" -T "BAND=%albuminterpret%" -T "ALBUMARTIST=%albuminterpret%" -T "COMPOSER=%composer%" %haslyrics%--tag-from-file=LYRICS="%lyricsfile%"%haslyrics% -T "DISCNUMBER=%cdnumber%" -T "TOTALDISCS=%totalcds%" -T "TOTALTRACKS=%numtracks%" %hascover%--picture="%coverfile%"%hascover% %source% -o %dest%


TOC of the extracted CD

Track | Start | Length | Start sector | End sector
---------------------------------------------------------
1 | 0:00.00 | 4:37.62 | 0 | 20836
2 | 4:37.62 | 3:40.18 | 20837 | 37354
3 | 8:18.05 | 4:49.05 | 37355 | 59034
4 | 13:07.10 | 4:02.22 | 59035 | 77206
5 | 17:09.32 | 4:42.70 | 77207 | 98426
6 | 21:52.27 | 3:42.38 | 98427 | 115114
7 | 25:34.65 | 4:13.20 | 115115 | 134109
8 | 29:48.10 | 3:35.37 | 134110 | 150271
9 | 33:23.47 | 3:37.25 | 150272 | 166571
10 | 37:00.72 | 2:16.33 | 166572 | 176804


Range status and errors

Selected range

Filename C:\mm\Alannah Myles\1989 - Alannah Myles [7567-81956-2]\Alannah Myles - Alannah Myles.wav

Peak level 97.7 %
Extraction speed 1.6 X
Range quality 100.0 %
Test CRC 2BDA2E8F
Copy CRC 2BDA2E8F
Copy OK

No errors occurred

End of status report

---- CUETools DB Plugin V2.1.6

[CTDB TOCID: bUY3ppeTEDyf4cOIKM_OSgUpKhk-] found
Submit result: bUY3ppeTEDyf4cOIKM_OSgUpKhk- has been confirmed
Track | CTDB Status
1 | (1276/1293) Accurately ripped
2 | (1281/1293) Accurately ripped
3 | (1284/1293) Accurately ripped
4 | (1280/1293) Accurately ripped
5 | (1283/1293) Accurately ripped
6 | (1277/1293) Accurately ripped
7 | (1280/1293) Accurately ripped
8 | (1280/1293) Accurately ripped
9 | (1281/1293) Accurately ripped
10 | (1279/1293) Accurately ripped
[свернуть]

Файл CUE

REM GENRE Rock
REM DATE 1989
REM DISCID 6E09350A
REM COMMENT "ExactAudioCopy v1.3"
PERFORMER "Alannah Myles"
TITLE "Alannah Myles"
REM COMPOSER ""
FILE "Alannah Myles - Alannah Myles.flac" WAVE
TRACK 01 AUDIO
TITLE "Still Got This Thing"
PERFORMER "Alannah Myles"
REM COMPOSER ""
INDEX 01 00:00:00
TRACK 02 AUDIO
TITLE "Love Is"
PERFORMER "Alannah Myles"
REM COMPOSER ""
INDEX 01 04:37:62
TRACK 03 AUDIO
TITLE "Black Velvet"
PERFORMER "Alannah Myles"
REM COMPOSER ""
INDEX 00 08:15:15
INDEX 01 08:18:05
TRACK 04 AUDIO
TITLE "Rock This Joint"
PERFORMER "Alannah Myles"
REM COMPOSER ""
INDEX 00 13:04:70
INDEX 01 13:07:10
TRACK 05 AUDIO
TITLE "Lover Of Mine"
PERFORMER "Alannah Myles"
REM COMPOSER ""
INDEX 00 17:06:60
INDEX 01 17:09:32
TRACK 06 AUDIO
TITLE "Kick Start My Heart"
PERFORMER "Alannah Myles"
REM COMPOSER ""
INDEX 00 21:49:27
INDEX 01 21:52:27
TRACK 07 AUDIO
TITLE "If You Want To"
PERFORMER "Alannah Myles"
REM COMPOSER ""
INDEX 00 25:33:42
INDEX 01 25:34:65
TRACK 08 AUDIO
TITLE "Just One Kiss"
PERFORMER "Alannah Myles"
REM COMPOSER ""
INDEX 00 29:46:55
INDEX 01 29:48:10
TRACK 09 AUDIO
TITLE "Who Loves You"
PERFORMER "Alannah Myles"
REM COMPOSER ""
INDEX 01 33:23:47
TRACK 10 AUDIO
TITLE "Hurry Make Love"
PERFORMER "Alannah Myles"
REM COMPOSER ""
INDEX 00 37:00:42
INDEX 01 37:00:72
[свернуть]

Лог проверки качества

AUDIOCHECKER v2.0 beta (build 457) - by Dester - [Ссылки могут видеть только зарегистрированные и активированные пользователи.]
[Only registered and activated users can see links.]
~~~~~~~~~~~~~~~~~~~~~~~~~~~~~~~~~~
-=== НЕ РЕДАКТИРУЙТЕ ЭТОТ ФАЙЛ! ===-

Путь: ...\1989 - Alannah Myles [7567-81956-2]

1 -=- Alannah Myles - Alannah Myles.flac -=- CDDA (100%)

189713700
[свернуть]

Спектр частот

[свернуть]

Скачать Alannah Myles - Alannah Myles

[Ссылки могут видеть только зарегистрированные и активированные пользователи.]
[Only registered and activated users can see links.]

password: sergych
[свернуть]

Контрольная сумма (хеш-сумма) архива

MD5: f06075f6362e4a7f79d7d59fc8cd9184
[свернуть]
My opinion of release: 10/10
__________________
TAIFUN.Wings of Soul

Вверх
3 пользователя(ей) сказали cпасибо:
Показать список поблагодаривших
Похожие темы
Тема Автор Раздел Ответов Последнее сообщение
Альбом Alannah Myles - Rockinghorse sergych Rock 0 25.05.2014 19:56
Альбом Alannah Myles - A-Lan-Nah sergych Pop Rock 0 25.05.2014 15:45


Метки
1989 , alannah myles , aor , pop rock , rock

Опции темы

Ваши права в разделе
Вы не можете создавать новые темы
Вы не можете отвечать в темах
Вы не можете прикреплять вложения
Вы не можете редактировать свои сообщения

Быстрый переход



Текущее время: 02:20. Часовой пояс GMT +3.
Powered by vBulletin® Version 3.8.10
Copyright ©2000 - 2018, vBulletin Solutions, Inc. Перевод: zCarot
© 2008 - 2018 Taifun With Song
Яндекс.Метрика