TAIFUN With Song
Навигация
Jazz и Blues Гибкая ритмика, импровизационное начало, гармонии и мелодии - все это Jazz. Blues - жизнеутверждающая музыка, рожденная из душевной боли

А знаете ли Вы, что...
Какой композитор писал музыку, будучи глухим?
«На момент написания своей знаменитой девятой симфонии Бетховен был абсолютно глух.»
 
Опции темы

  #1
Старый 24.05.2018, 18:25
sergych
Координатор
Досье
 
Аватар для sergych
Релиз Candy Dulfer - Right In My Soul


2003 - Candy Dulfer - Right In My Soul




Исполнитель/Artist: Candy Dulfer
Альбом/Album: Right In My Soul
Год/Year: 2003
Жанр/Genre: Smooth jazz, funk, nu jazz
Страна/Country: Япония
Рекорд-лейбл/Record label: Eagle Records
Номер в каталоге/Catalogue #: VICP-62301
Формат/Format: Free Lossless Audio Codec (*.flac)
Качество/Quality: Lossless
Тип рипа/RIP Type: image+.cue
Продолжительность/Length: 01:09:20
Источник/Source: Собственный рип
Размер/Size: 513.0 MB

Сканы в комплекте

Треклист

01. My Love [0:04:02.58]
02. Let Me Show You [0:03:17.72]
03. Right In My Soul [0:05:21.43]
04. Power To The People [0:06:02.37]
05. It's My Life [0:05:43.05]
06. Everyday People [0:05:36.08]
07. Play A Little Game [0:03:20.10]
08. Finsbury Park, Cafe 67 [0:04:42.02]
09. Freak Out [0:04:43.00]
10. December [0:04:33.58]
11. Valdez In The Country [0:03:44.25]
12. Boogie [0:04:12.45]
13. What's In Your Head - Single Edit [0:03:31.37]
14. Let Me Show You - Jhq Drum 'n Bass Mix [0:04:24.28]
15. Lost And Gone [0:06:04.35]
[свернуть]

youtube.com

[свернуть]

EAC лог

Exact Audio Copy V1.3 from 2. September 2016

EAC extraction logfile from 23. May 2018, 23:51

Candy Dulfer / Right In My Soul

Used drive : ATAPI iHAS124 D Adapter: 0 ID: 2

Read mode : Secure
Utilize accurate stream : Yes
Defeat audio cache : Yes
Make use of C2 pointers : No

Read offset correction : 6
Overread into Lead-In and Lead-Out : No
Fill up missing offset samples with silence : Yes
Delete leading and trailing silent blocks : No
Null samples used in CRC calculations : Yes
Used interface : Installed external ASPI interface

Used output format : User Defined Encoder
Selected bitrate : 1024 kBit/s
Quality : High
Add ID3 tag : No
Command line compressor : C:\Program Files (x86)\Exact Audio Copy\Flac\flac.exe
Additional command line options : -6 -V -T "ARTIST=%artist%" -T "TITLE=%title%" -T "ALBUM=%albumtitle%" -T "DATE=%year%" -T "TRACKNUMBER=%tracknr%" -T "GENRE=%genre%" -T "COMMENT=%comment%" -T "BAND=%albuminterpret%" -T "ALBUMARTIST=%albuminterpret%" -T "COMPOSER=%composer%" %haslyrics%--tag-from-file=LYRICS="%lyricsfile%"%haslyrics% -T "DISCNUMBER=%cdnumber%" -T "TOTALDISCS=%totalcds%" -T "TOTALTRACKS=%numtracks%" %hascover%--picture="%coverfile%"%hascover% %source% -o %dest%


TOC of the extracted CD

Track | Start | Length | Start sector | End sector
---------------------------------------------------------
1 | 0:00.00 | 4:02.58 | 0 | 18207
2 | 4:02.58 | 3:17.72 | 18208 | 33054
3 | 7:20.55 | 5:21.43 | 33055 | 57172
4 | 12:42.23 | 6:02.37 | 57173 | 84359
5 | 18:44.60 | 5:43.05 | 84360 | 110089
6 | 24:27.65 | 5:36.08 | 110090 | 135297
7 | 30:03.73 | 3:20.10 | 135298 | 150307
8 | 33:24.08 | 4:42.02 | 150308 | 171459
9 | 38:06.10 | 4:43.00 | 171460 | 192684
10 | 42:49.10 | 4:33.58 | 192685 | 213217
11 | 47:22.68 | 3:44.25 | 213218 | 230042
12 | 51:07.18 | 4:12.45 | 230043 | 248987
13 | 55:19.63 | 3:31.37 | 248988 | 264849
14 | 58:51.25 | 4:24.28 | 264850 | 284677
15 | 63:15.53 | 6:04.35 | 284678 | 312012


Range status and errors

Selected range

Filename C:\mm\Candy Dulfer\2003 - Right In My Soul [VICP-62301]\Candy Dulfer - Right In My Soul.wav

Peak level 97.7 %
Extraction speed 2.0 X
Range quality 100.0 %
Test CRC 4D1F6A41
Copy CRC 4D1F6A41
Copy OK

No errors occurred

End of status report

---- CUETools DB Plugin V2.1.6

[CTDB TOCID: c924tBBjC8ajvR.yw9Qq7.IcOaw-] found
Submit result: c924tBBjC8ajvR.yw9Qq7.IcOaw- has been confirmed
Track | CTDB Status
1 | (13/13) Accurately ripped
2 | (13/13) Accurately ripped
3 | (13/13) Accurately ripped
4 | (13/13) Accurately ripped
5 | (13/13) Accurately ripped
6 | (13/13) Accurately ripped
7 | (13/13) Accurately ripped
8 | (13/13) Accurately ripped
9 | (13/13) Accurately ripped
10 | (13/13) Accurately ripped
11 | (13/13) Accurately ripped
12 | (13/13) Accurately ripped
13 | (13/13) Accurately ripped
14 | (13/13) Accurately ripped
15 | (13/13) Accurately ripped
[свернуть]

Файл CUE

REM GENRE Funk
REM DATE 2003
REM DISCID D310400F
REM COMMENT "ExactAudioCopy v1.3"
PERFORMER "Candy Dulfer"
TITLE "Right In My Soul"
REM COMPOSER ""
FILE "Candy Dulfer - Right In My Soul.flac" WAVE
TRACK 01 AUDIO
TITLE "My Love"
PERFORMER "Candy Dulfer"
REM COMPOSER ""
INDEX 01 00:00:00
TRACK 02 AUDIO
TITLE "Let Me Show You"
PERFORMER "Candy Dulfer"
REM COMPOSER ""
INDEX 01 04:02:58
TRACK 03 AUDIO
TITLE "Right In My Soul"
PERFORMER "Candy Dulfer"
REM COMPOSER ""
INDEX 00 07:19:24
INDEX 01 07:20:55
TRACK 04 AUDIO
TITLE "Power To The People"
PERFORMER "Candy Dulfer"
REM COMPOSER ""
INDEX 01 12:42:23
TRACK 05 AUDIO
TITLE "It's My Life"
PERFORMER "Candy Dulfer"
REM COMPOSER ""
INDEX 01 18:44:60
TRACK 06 AUDIO
TITLE "Everyday People"
PERFORMER "Candy Dulfer"
REM COMPOSER ""
INDEX 00 24:27:01
INDEX 01 24:27:65
TRACK 07 AUDIO
TITLE "Play A Little Game"
PERFORMER "Candy Dulfer"
REM COMPOSER ""
INDEX 01 30:03:73
TRACK 08 AUDIO
TITLE "Finsbury Park, Cafe 67"
PERFORMER "Candy Dulfer"
REM COMPOSER ""
INDEX 01 33:24:08
TRACK 09 AUDIO
TITLE "Freak Out"
PERFORMER "Candy Dulfer"
REM COMPOSER ""
INDEX 01 38:06:10
TRACK 10 AUDIO
TITLE "December"
PERFORMER "Candy Dulfer"
REM COMPOSER ""
INDEX 01 42:49:10
TRACK 11 AUDIO
TITLE "Valdez In The Country"
PERFORMER "Candy Dulfer"
REM COMPOSER ""
INDEX 01 47:22:68
TRACK 12 AUDIO
TITLE "Boogie"
PERFORMER "Candy Dulfer"
REM COMPOSER ""
INDEX 01 51:07:18
TRACK 13 AUDIO
TITLE "What's In Your Head - Single Edit"
PERFORMER "Candy Dulfer"
REM COMPOSER ""
INDEX 01 55:19:63
TRACK 14 AUDIO
TITLE "Let Me Show You - Jhq Drum 'n Bass Mix"
PERFORMER "Candy Dulfer"
REM COMPOSER ""
INDEX 01 58:51:25
TRACK 15 AUDIO
TITLE "Lost And Gone"
PERFORMER "Candy Dulfer"
REM COMPOSER ""
INDEX 00 63:15:16
INDEX 01 63:15:53
[свернуть]

Лог проверки качества

AUDIOCHECKER v2.0 beta (build 457) - by Dester -
~~~~~~~~~~~~~~~~~~~~~~~~~~~~~~~~~~
-=== НЕ РЕДАКТИРУЙТЕ ЭТОТ ФАЙЛ! ===-

Путь: ...\2003 - Right In My Soul [VICP-62301]

1 -=- Candy Dulfer - Right In My Soul.flac -=- CDDA (100%)

98948260
[свернуть]

Спектр частот

[свернуть]

Скачать Candy Dulfer - Right In My Soul



password: sergych
[свернуть]

Контрольная сумма (хеш-сумма) архива

MD5: 2aaea8631a62cd8608effb7736d12b8b
[свернуть]
My opinion of release: 9/10
__________________
TAIFUN.Wings of Soul

Вверх
4 пользователя(ей) сказали cпасибо:
Показать список поблагодаривших
  #2
Старый 24.05.2018, 21:24
swint68
Меломан
Досье
 
Аватар для swint68
По умолчанию Re: Candy Dulfer - Right In My Soul

Большое спасибо за японское издание!

Вверх
2 пользователя(ей) сказали cпасибо:
sergych (25.05.2018), TAIFUN (31.05.2018)
Похожие темы
Тема Автор Раздел Ответов Последнее сообщение
Альбом Candy Dulfer - Big Girl sergych Jazz и Blues 0 18.11.2017 07:06
Альбом Candy Dulfer - Sax-A-Go-Go sergych Jazz и Blues 0 17.11.2017 06:15
Альбом Candy Dulfer - Girl Night Out sergych Jazz и Blues 0 17.08.2017 22:50
Альбом Candy Dulfer - SAXuality sergych Jazz и Blues 0 26.04.2014 12:25
Релиз Candy Dulfer - Crazy PUPOKIN Jazz и Blues 0 10.10.2011 09:58


Метки
2003 , candy dulfer , funk , nu jazz , right in my soul , smooth jazz

Опции темы

Ваши права в разделе
Вы не можете создавать новые темы
Вы не можете отвечать в темах
Вы не можете прикреплять вложения
Вы не можете редактировать свои сообщения

Быстрый переход



Текущее время: 15:55. Часовой пояс GMT +3.
Powered by vBulletin® Version 3.8.10
Copyright ©2000 - 2018, vBulletin Solutions, Inc. Перевод: zCarot
© 2008 - 2018 Taifun With Song
Яндекс.Метрика