TAIFUN With Song
Навигация
Classical В этом разделе релизы на классическую музыку.

А знаете ли Вы, что...
Какова самая низкая нота, которую может взять человек?
«Американский певец Тим Стормс обладает самым широким в мире вокальным диапазоном. Ещё один зафиксированный рекорд, принадлежащий Стормсу — самая низкая нота, взятая человеком. Эта нота частотой 0,189 Гц — соль на восемь октав ниже, чем самая низкая соль на фортепиано. Данный звук очень далеко отстоит от порога человеческого восприятия (для обычного человека — 16 Гц), а рекорд фиксировался специальными акустическими приборами.»
 
Опции темы

  #1
Старый 23.05.2018, 20:57
sergych
Координатор
Досье
 
Аватар для sergych
Релиз Sarah Brightman - Encore


2002 - Sarah Brightman - Encore




Исполнитель/Artist: Sarah Brightman
Альбом/Album: Encore
Год/Year: 2002
Жанр/Genre: Vocal, Classical Crossover
Страна/Country: Германия
Рекорд-лейбл/Record label: Really Useful Group
Номер в каталоге/Catalogue #: 589 050-2
Формат/Format: Free Lossless Audio Codec (*.flac)
Качество/Quality: Lossless
Тип рипа/RIP Type: image+.cue
Продолжительность/Length: 00:51:28
Источник/Source: Собственный рип
Размер/Size: 293 MB

Сканы в комплекте

Треклист

01. Whistle Down The Wind (Whistle Down The Wind) [0:03:28.35]
02. Away From You (Rex) [0:03:29.10]
03. Guardami (With One Look, Italian Version) (Sunset Boulevard) [0:03:38.35]
04. Think Of Me (The Phantom of the Opera) [0:03:15.60]
05. One More Walk Around The Garden (Carmelina) [0:03:18.67]
06. Surrender (Sunset Boulevard) [0:03:06.10]
07. If I Ever Fall In Love Again (The Crooked Mile) [0:03:59.38]
08. Half A Moment (Jeeves) [0:03:59.07]
09. Piano (Memory, Italian Version) (Cats) [0:05:07.70]
10. What More Do I Need (Saturday Night) [0:03:04.65]
11. There Is More To Love (Aspects Of Love) [0:02:34.55]
12. The Last Man In My Life (Song And Dance) [0:03:10.35]
13. In The Mandarin's Orchid Garden (East Is West) [0:03:17.58]
14. Nothing Like You've Ever Known (Tell Me On A Sunday & Song and Dance) [0:03:11.22]
15. Chi Il Bel Sogno Di Doretta (La Rondine) [0:02:45.50]
[свернуть]

youtube.com

[свернуть]

EAC лог

Exact Audio Copy V1.3 from 2. September 2016

EAC extraction logfile from 22. May 2018, 13:19

Sarah Brightman / Encore

Used drive : ATAPI iHAS124 D Adapter: 0 ID: 2

Read mode : Secure
Utilize accurate stream : Yes
Defeat audio cache : Yes
Make use of C2 pointers : No

Read offset correction : 6
Overread into Lead-In and Lead-Out : No
Fill up missing offset samples with silence : Yes
Delete leading and trailing silent blocks : No
Null samples used in CRC calculations : Yes
Used interface : Installed external ASPI interface

Used output format : User Defined Encoder
Selected bitrate : 1024 kBit/s
Quality : High
Add ID3 tag : No
Command line compressor : C:\Program Files (x86)\Exact Audio Copy\Flac\flac.exe
Additional command line options : -6 -V -T "ARTIST=%artist%" -T "TITLE=%title%" -T "ALBUM=%albumtitle%" -T "DATE=%year%" -T "TRACKNUMBER=%tracknr%" -T "GENRE=%genre%" -T "COMMENT=%comment%" -T "BAND=%albuminterpret%" -T "ALBUMARTIST=%albuminterpret%" -T "COMPOSER=%composer%" %haslyrics%--tag-from-file=LYRICS="%lyricsfile%"%haslyrics% -T "DISCNUMBER=%cdnumber%" -T "TOTALDISCS=%totalcds%" -T "TOTALTRACKS=%numtracks%" %hascover%--picture="%coverfile%"%hascover% %source% -o %dest%


TOC of the extracted CD

Track | Start | Length | Start sector | End sector
---------------------------------------------------------
1 | 0:00.00 | 3:28.35 | 0 | 15634
2 | 3:28.35 | 3:29.10 | 15635 | 31319
3 | 6:57.45 | 3:38.35 | 31320 | 47704
4 | 10:36.05 | 3:15.60 | 47705 | 62389
5 | 13:51.65 | 3:18.67 | 62390 | 77306
6 | 17:10.57 | 3:06.10 | 77307 | 91266
7 | 20:16.67 | 3:59.38 | 91267 | 109229
8 | 24:16.30 | 3:59.07 | 109230 | 127161
9 | 28:15.37 | 5:07.70 | 127162 | 150256
10 | 33:23.32 | 3:04.65 | 150257 | 164121
11 | 36:28.22 | 2:34.55 | 164122 | 175726
12 | 39:03.02 | 3:10.35 | 175727 | 190011
13 | 42:13.37 | 3:17.58 | 190012 | 204844
14 | 45:31.20 | 3:11.22 | 204845 | 219191
15 | 48:42.42 | 2:45.50 | 219192 | 231616


Range status and errors

Selected range

Filename C:\mm\Sarah Brightman\2002 - Encore [589 050-2]\Sarah Brightman - Encore.wav

Peak level 98.2 %
Extraction speed 1.7 X
Range quality 99.9 %
Test CRC D5DB7E3B
Copy CRC D5DB7E3B
Copy OK

No errors occurred

End of status report

---- CUETools DB Plugin V2.1.6

[CTDB TOCID: vGC04sDRHe8jBz9RnQxywLfYy_U-] found
Submit result: vGC04sDRHe8jBz9RnQxywLfYy_U- has been confirmed
Track | CTDB Status
1 | (119/120) Accurately ripped
2 | (119/120) Accurately ripped
3 | (119/120) Accurately ripped
4 | (119/120) Accurately ripped
5 | (119/120) Accurately ripped
6 | (118/120) Accurately ripped
7 | (116/120) Accurately ripped
8 | (117/120) Accurately ripped
9 | (117/120) Accurately ripped
10 | (117/120) Accurately ripped
11 | (117/120) Accurately ripped
12 | (116/120) Accurately ripped
13 | (117/120) Accurately ripped
14 | (116/120) Accurately ripped
15 | (115/120) Accurately ripped
[свернуть]

Файл CUE

REM GENRE Musical
REM DATE 2002
REM DISCID BD0C100F
REM COMMENT "ExactAudioCopy v1.3"
PERFORMER "Sarah Brightman"
TITLE "Encore"
REM COMPOSER ""
FILE "Sarah Brightman - Encore.flac" WAVE
TRACK 01 AUDIO
TITLE "Whistle Down The Wind (Whistle Down The Wind)"
PERFORMER "Sarah Brightman"
REM COMPOSER ""
INDEX 01 00:00:00
TRACK 02 AUDIO
TITLE "Away From You (Rex)"
PERFORMER "Sarah Brightman"
REM COMPOSER ""
INDEX 00 03:27:30
INDEX 01 03:28:35
TRACK 03 AUDIO
TITLE "Guardami (With One Look, Italian Version) (Sunset Boulevard)"
PERFORMER "Sarah Brightman"
REM COMPOSER ""
INDEX 00 06:56:27
INDEX 01 06:57:45
TRACK 04 AUDIO
TITLE "Think Of Me (The Phantom of the Opera)"
PERFORMER "Sarah Brightman"
REM COMPOSER ""
INDEX 01 10:36:05
TRACK 05 AUDIO
TITLE "One More Walk Around The Garden (Carmelina)"
PERFORMER "Sarah Brightman"
REM COMPOSER ""
INDEX 00 13:49:70
INDEX 01 13:51:65
TRACK 06 AUDIO
TITLE "Surrender (Sunset Boulevard)"
PERFORMER "Sarah Brightman"
REM COMPOSER ""
INDEX 00 17:09:25
INDEX 01 17:10:57
TRACK 07 AUDIO
TITLE "If I Ever Fall In Love Again (The Crooked Mile)"
PERFORMER "Sarah Brightman"
REM COMPOSER ""
INDEX 00 20:14:52
INDEX 01 20:16:67
TRACK 08 AUDIO
TITLE "Half A Moment (Jeeves)"
PERFORMER "Sarah Brightman"
REM COMPOSER ""
INDEX 00 24:15:00
INDEX 01 24:16:30
TRACK 09 AUDIO
TITLE "Piano (Memory, Italian Version) (Cats)"
PERFORMER "Sarah Brightman"
REM COMPOSER ""
INDEX 00 28:13:35
INDEX 01 28:15:37
TRACK 10 AUDIO
TITLE "What More Do I Need (Saturday Night)"
PERFORMER "Sarah Brightman"
REM COMPOSER ""
INDEX 00 33:21:42
INDEX 01 33:23:32
TRACK 11 AUDIO
TITLE "There Is More To Love (Aspects Of Love)"
PERFORMER "Sarah Brightman"
REM COMPOSER ""
INDEX 00 36:26:57
INDEX 01 36:28:22
TRACK 12 AUDIO
TITLE "The Last Man In My Life (Song And Dance)"
PERFORMER "Sarah Brightman"
REM COMPOSER ""
INDEX 00 39:01:15
INDEX 01 39:03:02
TRACK 13 AUDIO
TITLE "In The Mandarin's Orchid Garden (East Is West)"
PERFORMER "Sarah Brightman"
REM COMPOSER ""
INDEX 00 42:11:70
INDEX 01 42:13:37
TRACK 14 AUDIO
TITLE "Nothing Like You've Ever Known (Tell Me On A Sunday & Song and Dance)"
PERFORMER "Sarah Brightman"
REM COMPOSER ""
INDEX 00 45:30:05
INDEX 01 45:31:20
TRACK 15 AUDIO
TITLE "Chi Il Bel Sogno Di Doretta (La Rondine)"
PERFORMER "Sarah Brightman"
REM COMPOSER ""
INDEX 00 48:40:50
INDEX 01 48:42:42
[свернуть]

Лог проверки качества

AUDIOCHECKER v2.0 beta (build 457) - by Dester -
~~~~~~~~~~~~~~~~~~~~~~~~~~~~~~~~~~
-=== НЕ РЕДАКТИРУЙТЕ ЭТОТ ФАЙЛ! ===-

Путь: ...\2002 - Encore [589 050-2]

1 -=- Sarah Brightman - Encore.flac -=- CDDA (100%)

192688484
[свернуть]

Спектр частот

[свернуть]

Скачать Sarah Brightman - Encore



password: sergych
[свернуть]

Контрольная сумма (хеш-сумма) архива

MD5: d5d478598737416a11bca46c153d4152
[свернуть]
My opinion of release: 10/10
__________________
TAIFUN.Wings of Soul

Вверх
3 пользователя(ей) сказали cпасибо:
Показать список поблагодаривших
  #2
Старый 24.05.2018, 22:23
swint68
Меломан
Досье
 
Аватар для swint68
По умолчанию Re: Sarah Brightman - Encore

Круто!
Большое спасибо!!!

Вверх
2 пользователя(ей) сказали cпасибо:
sergych (25.05.2018), TAIFUN (31.05.2018)
Похожие темы
Тема Автор Раздел Ответов Последнее сообщение
Релиз Sarah Brightman - Dreamchaser aheron Зарубежная Поп-Музыка 1 31.12.2015 19:56
Релиз Sarah Brightman - Amalfi Sarah Brightman Love Songs PUPOKIN Classical 0 22.08.2009 11:30
Альбом Sarah Brightman - Symphony sergych Classical 0 16.08.2008 21:56
Альбом Sarah Brightman - Fly sergych Classical 0 16.08.2008 21:54
Sarah Brightman sergych Classical [FAQ] 0 16.08.2008 19:48


Метки
2002 , classical crossover , encore , sarah brightman , vocal

Опции темы

Ваши права в разделе
Вы не можете создавать новые темы
Вы не можете отвечать в темах
Вы не можете прикреплять вложения
Вы не можете редактировать свои сообщения

Быстрый переход



Текущее время: 11:59. Часовой пояс GMT +3.
Powered by vBulletin® Version 3.8.10
Copyright ©2000 - 2018, vBulletin Solutions, Inc. Перевод: zCarot
© 2008 - 2018 Taifun With Song
Яндекс.Метрика