TAIFUN With Song
Навигация
Jazz и Blues Гибкая ритмика, импровизационное начало, гармонии и мелодии - все это Jazz. Blues - жизнеутверждающая музыка, рожденная из душевной боли

А знаете ли Вы, что...
Зачем Джимми Хендрикс на некоторых концертах целовал в щёку своего бас-гитариста?
«В песне Джимми Хендрикса «Purple Haze» есть строчка: «Excuse me while I kiss the sky» («Прости меня, когда я целую небеса»). Очень часто слушатели понимали её совсем по-другому: «Excuse me while I kiss this guy» («Прости меня, когда я целую этого парня»). Сам Хендрикс знал об этой ослышке и иногда после исполнения этой строчки целовал в щёку своего бас-гитариста.»
 
Опции темы

  #1
Старый 21.05.2018, 21:35
sergych
Координатор
Досье
 
Аватар для sergych
Релиз Cassandra Wilson - Loverly


2008 - Cassandra Wilson - Loverly




Исполнитель/Artist: Cassandra Wilson
Альбом/Album: Loverly
Год/Year: 2008
Жанр/Genre: Jazz, Contemporary Jazz
Страна/Country: Аргентина
Рекорд-лейбл/Record label: Blue Note
Номер в каталоге/Catalogue #: 50999 5076992 6
Формат/Format: Free Lossless Audio Codec (*.flac)
Качество/Quality: Lossless
Тип рипа/RIP Type: image+.cue
Продолжительность/Length: 01:00:49
Источник/Source: Собственный рип
Размер/Size: 399.7 MB

Сканы в комплекте

Треклист

01. Lover Come Back To Me [0:04:16.30]
02. A Day In The Life Of A Fool [0:04:58.62]
03. Wouldn't It Be Loverly [0:05:02.18]
04. Gone With The Wind [0:05:51.34]
05. Caravan [0:04:23.17]
06. 'Til There Was You [0:06:42.24]
07. Spring Can Really Hang You Up The Most [0:05:01.65]
08. Arere [0:05:42.69]
09. St. James Infirmary [0:04:40.10]
10. Dust My Broom [0:04:46.20]
11. The Very Thought Of You [0:04:47.22]
12. Sleepin' Bee [0:04:35.62]
[свернуть]

youtube.com

[свернуть]

Исполнители/Performers

Cassandra Wilson – vocals
Jason Moran – piano (1-6, 8-10, 12)
Marvin Sewell – guitar (1-10, 12)
Lonnie Plaxico – acoustic bass (1-6, 8-10, 12)
Reginald Veal – acoustic bass (11)
Herlin Riley – drums (1-6, 8-10, 12)
Lekan Babalola – percussion (1, 2, 4-6, 8-10)
Rhonda Richmond – background vocals (8)
Nicholas Payton – trumpet (1)
[свернуть]

EAC лог

Exact Audio Copy V1.3 from 2. September 2016

EAC extraction logfile from 15. May 2018, 19:32

Cassandra Wilson / Loverly

Used drive : ATAPI iHAS124 D Adapter: 0 ID: 2

Read mode : Secure
Utilize accurate stream : Yes
Defeat audio cache : Yes
Make use of C2 pointers : No

Read offset correction : 6
Overread into Lead-In and Lead-Out : No
Fill up missing offset samples with silence : Yes
Delete leading and trailing silent blocks : No
Null samples used in CRC calculations : Yes
Used interface : Installed external ASPI interface

Used output format : User Defined Encoder
Selected bitrate : 1024 kBit/s
Quality : High
Add ID3 tag : No
Command line compressor : C:\Program Files (x86)\Exact Audio Copy\Flac\flac.exe
Additional command line options : -6 -V -T "ARTIST=%artist%" -T "TITLE=%title%" -T "ALBUM=%albumtitle%" -T "DATE=%year%" -T "TRACKNUMBER=%tracknr%" -T "GENRE=%genre%" -T "COMMENT=%comment%" -T "BAND=%albuminterpret%" -T "ALBUMARTIST=%albuminterpret%" -T "COMPOSER=%composer%" %haslyrics%--tag-from-file=LYRICS="%lyricsfile%"%haslyrics% -T "DISCNUMBER=%cdnumber%" -T "TOTALDISCS=%totalcds%" -T "TOTALTRACKS=%numtracks%" %hascover%--picture="%coverfile%"%hascover% %source% -o %dest%


TOC of the extracted CD

Track | Start | Length | Start sector | End sector
---------------------------------------------------------
1 | 0:00.00 | 4:16.30 | 0 | 19229
2 | 4:16.30 | 4:58.62 | 19230 | 41641
3 | 9:15.17 | 5:02.18 | 41642 | 64309
4 | 14:17.35 | 5:51.34 | 64310 | 90668
5 | 20:08.69 | 4:23.17 | 90669 | 110410
6 | 24:32.11 | 6:42.24 | 110411 | 140584
7 | 31:14.35 | 5:01.65 | 140585 | 163224
8 | 36:16.25 | 5:42.69 | 163225 | 188943
9 | 41:59.19 | 4:40.10 | 188944 | 209953
10 | 46:39.29 | 4:46.20 | 209954 | 231423
11 | 51:25.49 | 4:47.22 | 231424 | 252970
12 | 56:12.71 | 4:35.62 | 252971 | 273657


Range status and errors

Selected range

Filename C:\mm\Cassandra Wilson\2008 - Loverly [50999 5076992 6]\Cassandra Wilson - Loverly.wav

Peak level 100.0 %
Extraction speed 1.9 X
Range quality 100.0 %
Test CRC 2037AB56
Copy CRC 2037AB56
Copy OK

No errors occurred

End of status report

---- CUETools DB Plugin V2.1.6

[CTDB TOCID: _KooobicQ3k3RhlQ2XI__2IkGTE-] found
Submit result: _KooobicQ3k3RhlQ2XI__2IkGTE- has been confirmed
Track | CTDB Status
1 | (231/238) Accurately ripped
2 | (230/238) Accurately ripped
3 | (234/238) Accurately ripped
4 | (234/238) Accurately ripped
5 | (231/238) Accurately ripped
6 | (234/238) Accurately ripped
7 | (234/238) Accurately ripped
8 | (233/238) Accurately ripped
9 | (231/238) Accurately ripped
10 | (233/238) Accurately ripped
11 | (231/238) Accurately ripped
12 | (230/238) Accurately ripped
[свернуть]

Файл CUE

REM GENRE Vocal
REM DATE 2008
REM DISCID AC0E400C
REM COMMENT "ExactAudioCopy v1.3"
PERFORMER "Cassandra Wilson"
TITLE "Loverly"
REM COMPOSER ""
FILE "Cassandra Wilson - Loverly.flac" WAVE
TRACK 01 AUDIO
TITLE "Lover Come Back To Me"
PERFORMER "Cassandra Wilson"
REM COMPOSER ""
INDEX 01 00:00:00
TRACK 02 AUDIO
TITLE "A Day In The Life Of A Fool"
PERFORMER "Cassandra Wilson"
REM COMPOSER ""
INDEX 00 04:14:06
INDEX 01 04:16:30
TRACK 03 AUDIO
TITLE "Wouldn't It Be Loverly"
PERFORMER "Cassandra Wilson"
REM COMPOSER ""
INDEX 00 09:12:51
INDEX 01 09:15:17
TRACK 04 AUDIO
TITLE "Gone With The Wind"
PERFORMER "Cassandra Wilson"
REM COMPOSER ""
INDEX 00 14:14:65
INDEX 01 14:17:35
TRACK 05 AUDIO
TITLE "Caravan"
PERFORMER "Cassandra Wilson"
REM COMPOSER ""
INDEX 00 20:05:01
INDEX 01 20:08:69
TRACK 06 AUDIO
TITLE "'Til There Was You"
PERFORMER "Cassandra Wilson"
REM COMPOSER ""
INDEX 00 24:28:44
INDEX 01 24:32:11
TRACK 07 AUDIO
TITLE "Spring Can Really Hang You Up The Most"
PERFORMER "Cassandra Wilson"
REM COMPOSER ""
INDEX 00 31:10:30
INDEX 01 31:14:35
TRACK 08 AUDIO
TITLE "Arere"
PERFORMER "Cassandra Wilson"
REM COMPOSER ""
INDEX 00 36:12:02
INDEX 01 36:16:25
TRACK 09 AUDIO
TITLE "St. James Infirmary"
PERFORMER "Cassandra Wilson"
REM COMPOSER ""
INDEX 00 41:54:67
INDEX 01 41:59:19
TRACK 10 AUDIO
TITLE "Dust My Broom"
PERFORMER "Cassandra Wilson"
REM COMPOSER ""
INDEX 00 46:35:66
INDEX 01 46:39:29
TRACK 11 AUDIO
TITLE "The Very Thought Of You"
PERFORMER "Cassandra Wilson"
REM COMPOSER ""
INDEX 00 51:23:07
INDEX 01 51:25:49
TRACK 12 AUDIO
TITLE "Sleepin' Bee"
PERFORMER "Cassandra Wilson"
REM COMPOSER ""
INDEX 00 56:09:23
INDEX 01 56:12:71
[свернуть]

Лог проверки качества

AUDIOCHECKER v2.0 beta (build 457) - by Dester -
~~~~~~~~~~~~~~~~~~~~~~~~~~~~~~~~~~
-=== НЕ РЕДАКТИРУЙТЕ ЭТОТ ФАЙЛ! ===-

Путь: ...\2008 - Loverly [50999 5076992 6]

1 -=- Cassandra Wilson - Loverly.flac -=- CDDA (100%)

126802996
[свернуть]

Спектр частот

[свернуть]

Скачать Cassandra Wilson - Loverly



password: sergych
[свернуть]

Контрольная сумма (хеш-сумма) архива

MD5: 5ad663fddcf285fe80c4c63587efffd2
[свернуть]
My opinion of release: 10/10
__________________
TAIFUN.Wings of Soul

Вверх
3 пользователя(ей) сказали cпасибо:
Показать список поблагодаривших
Похожие темы
Тема Автор Раздел Ответов Последнее сообщение
Альбом Cassandra Wilson - Coming Forth by Day sergych Jazz и Blues 0 15.11.2016 20:04
Альбом Cassandra Wilson - Blue Skies sergych Jazz и Blues 0 04.11.2016 17:32
Альбом Cassandra Wilson - Thunderbird sergych Jazz и Blues 0 11.11.2015 19:29
Альбом Cassandra Wilson - Belly of The Sun sergych Jazz и Blues 0 11.11.2015 18:55
Релиз Cassandra Wilson - Another Country PUPOKIN Jazz и Blues 0 27.06.2012 10:14


Метки
2008 , cassandra wilson , contemporary jazz , jazz , loverly

Опции темы

Ваши права в разделе
Вы не можете создавать новые темы
Вы не можете отвечать в темах
Вы не можете прикреплять вложения
Вы не можете редактировать свои сообщения

Быстрый переход



Текущее время: 19:26. Часовой пояс GMT +3.
Powered by vBulletin® Version 3.8.10
Copyright ©2000 - 2018, vBulletin Solutions, Inc. Перевод: zCarot
© 2008 - 2018 Taifun With Song
Яндекс.Метрика