TAIFUN With Song
Навигация
Вернуться   TAIFUN With Song > Music (обменник) > Другие направления музыки > Jazz и Blues
Расширенный поиск
Jazz и Blues Гибкая ритмика, импровизационное начало, гармонии и мелодии - все это Jazz. Blues - жизнеутверждающая музыка, рожденная из душевной боли

А знаете ли Вы, что...
Какие предметы лежат в склепе Боба Марли?
«Знаменитый ямайский регги-музыкант Боб Марли завещал положить в свой посмертный склеп гитару «Les Paul», футбольный мяч, Библию и свёрток марихуаны.»
 
Опции темы

  #1
Старый 24.04.2013, 15:00
sergych
Координатор
Досье
 
Аватар для sergych
Релиз Oscar Peterson Trio - With Respect To Nat


1966(1998) - Oscar Peterson Trio - With Respect To Nat




Исполнитель/Artist: Oscar Peterson Trio
Альбом/Album: With Respect To Nat
Год/Year: 1966
Ремастеринг/Remaster: 1998
Жанр/Genre: jazz, swing
Страна/Country: Германия
Рекорд-лейбл/Record label: PolyGram / Limelight Records
Номер в каталоге/Catalogue #: 557 486-2
Формат/Format: Free Lossless Audio Codec (*.flac)
Качество/Quality: Lossless
Тип рипа/RIP Type: image+.cue
Продолжительность/Length: 00:33:50
Источник/Source: Собственный рип
Размер/Size: 217.9 MB

Сканы в комплекте

Треклист

01. When My Sugar Walks Down The Street [0:02:22.67]
02. It's Only A Paper Moon [0:02:32.30]
03. Walkin' My Baby Back Home [0:02:34.08]
04. Sweet Lorraine [0:03:34.57]
05. Unforgettable [0:02:40.15]
06. Little Girl [0:02:38.38]
07. Gee, Baby, Ain't I Good To You? [0:02:59.45]
08. Orange Colored Sky [0:02:15.32]
09. Straighten Up And Fly Right [0:02:29.10]
10. Calypso Blues [0:03:37.70]
11. What Can I Say After I Say I'm Sorry? [0:02:42.28]
12. Easy Listening Blues [0:03:23.05]
[свернуть]

youtube.com

[свернуть]

Исполнители/Performers

Oscar Peterson — piano, vocals
Hank Jones — piano
Ray Brown, Richard Davis — double bass
Herb Ellis, Barry Galbraith — guitar
Mel Lewis — drums
Wayne Andre, Jimmy Cleveland, J. J. Johnson — trombone
Tony Studd — bass trombone
Seldon Powell — alto flute, tenor flute
Jerome Richardson — bass flute, tenor flute
John Frosk, Joe Newman — trumpet
Ernie Royal, Danny Stiles — trumpet, flugelhorn
Phil Woods — alto saxophone
[свернуть]

EAC лог

Exact Audio Copy V1.3 from 2. September 2016

EAC extraction logfile from 21. June 2018, 17:10

Oscar Peterson Trio / With Respect To Nat

Used drive : ATAPI iHAS124 D Adapter: 0 ID: 2

Read mode : Secure
Utilize accurate stream : Yes
Defeat audio cache : Yes
Make use of C2 pointers : No

Read offset correction : 6
Overread into Lead-In and Lead-Out : No
Fill up missing offset samples with silence : Yes
Delete leading and trailing silent blocks : No
Null samples used in CRC calculations : Yes
Used interface : Installed external ASPI interface

Used output format : User Defined Encoder
Selected bitrate : 1024 kBit/s
Quality : High
Add ID3 tag : No
Command line compressor : C:\Program Files (x86)\Exact Audio Copy\Flac\flac.exe
Additional command line options : -6 -V -T "ARTIST=%artist%" -T "TITLE=%title%" -T "ALBUM=%albumtitle%" -T "DATE=%year%" -T "TRACKNUMBER=%tracknr%" -T "GENRE=%genre%" -T "COMMENT=%comment%" -T "BAND=%albuminterpret%" -T "ALBUMARTIST=%albuminterpret%" -T "COMPOSER=%composer%" %haslyrics%--tag-from-file=LYRICS="%lyricsfile%"%haslyrics% -T "DISCNUMBER=%cdnumber%" -T "TOTALDISCS=%totalcds%" -T "TOTALTRACKS=%numtracks%" %hascover%--picture="%coverfile%"%hascover% %source% -o %dest%


TOC of the extracted CD

Track | Start | Length | Start sector | End sector
---------------------------------------------------------
1 | 0:00.00 | 2:22.67 | 0 | 10716
2 | 2:22.67 | 2:32.30 | 10717 | 22146
3 | 4:55.22 | 2:34.08 | 22147 | 33704
4 | 7:29.30 | 3:34.57 | 33705 | 49811
5 | 11:04.12 | 2:40.15 | 49812 | 61826
6 | 13:44.27 | 2:38.38 | 61827 | 73714
7 | 16:22.65 | 2:59.45 | 73715 | 87184
8 | 19:22.35 | 2:15.32 | 87185 | 97341
9 | 21:37.67 | 2:29.10 | 97342 | 108526
10 | 24:07.02 | 3:37.70 | 108527 | 124871
11 | 27:44.72 | 2:42.28 | 124872 | 137049
12 | 30:27.25 | 3:23.05 | 137050 | 152279


Range status and errors

Selected range

Filename C:\mm\Oscar Peterson\1966(1998) - With Respect To Nat [557 486-2]\Oscar Peterson Trio - With Respect To Nat.wav

Peak level 90.2 %
Extraction speed 1.6 X
Range quality 100.0 %
Test CRC 9BC893C1
Copy CRC 9BC893C1
Copy OK

No errors occurred

End of status report

---- CUETools DB Plugin V2.1.6

[CTDB TOCID: 3pIqXA8JIfFp.lIVDTB012Pgdjc-] found
Submit result: 3pIqXA8JIfFp.lIVDTB012Pgdjc- has been confirmed
Track | CTDB Status
1 | (13/61) Accurately ripped
2 | (13/61) Accurately ripped
3 | (13/61) Accurately ripped
4 | (13/61) Accurately ripped
5 | (13/61) Accurately ripped
6 | (13/61) Accurately ripped
7 | (13/61) Accurately ripped
8 | (13/61) Accurately ripped
9 | (13/61) Accurately ripped
10 | (13/61) Accurately ripped
11 | (13/61) Accurately ripped
12 | (13/61) Accurately ripped
[свернуть]

Файл CUE

REM GENRE Jazz
REM DATE 1998
REM DISCID B807EE0C
REM COMMENT "ExactAudioCopy v1.3"
PERFORMER "Oscar Peterson Trio"
TITLE "With Respect To Nat"
REM COMPOSER ""
FILE "Oscar Peterson Trio - With Respect To Nat.flac" WAVE
TRACK 01 AUDIO
TITLE "When My Sugar Walks Down The Street"
PERFORMER "Oscar Peterson Trio"
REM COMPOSER ""
INDEX 01 00:00:00
TRACK 02 AUDIO
TITLE "It's Only A Paper Moon"
PERFORMER "Oscar Peterson Trio"
REM COMPOSER ""
INDEX 00 02:18:20
INDEX 01 02:22:67
TRACK 03 AUDIO
TITLE "Walkin' My Baby Back Home"
PERFORMER "Oscar Peterson Trio"
REM COMPOSER ""
INDEX 00 04:51:62
INDEX 01 04:55:22
TRACK 04 AUDIO
TITLE "Sweet Lorraine"
PERFORMER "Oscar Peterson Trio"
REM COMPOSER ""
INDEX 00 07:26:02
INDEX 01 07:29:30
TRACK 05 AUDIO
TITLE "Unforgettable"
PERFORMER "Oscar Peterson Trio"
REM COMPOSER ""
INDEX 00 11:00:52
INDEX 01 11:04:12
TRACK 06 AUDIO
TITLE "Little Girl"
PERFORMER "Oscar Peterson Trio"
REM COMPOSER ""
INDEX 00 13:41:02
INDEX 01 13:44:27
TRACK 07 AUDIO
TITLE "Gee, Baby, Ain't I Good To You?"
PERFORMER "Oscar Peterson Trio"
REM COMPOSER ""
INDEX 00 16:19:27
INDEX 01 16:22:65
TRACK 08 AUDIO
TITLE "Orange Colored Sky"
PERFORMER "Oscar Peterson Trio"
REM COMPOSER ""
INDEX 00 19:18:72
INDEX 01 19:22:35
TRACK 09 AUDIO
TITLE "Straighten Up And Fly Right"
PERFORMER "Oscar Peterson Trio"
REM COMPOSER ""
INDEX 00 21:34:32
INDEX 01 21:37:67
TRACK 10 AUDIO
TITLE "Calypso Blues"
PERFORMER "Oscar Peterson Trio"
REM COMPOSER ""
INDEX 00 24:03:42
INDEX 01 24:07:02
TRACK 11 AUDIO
TITLE "What Can I Say After I Say I'm Sorry?"
PERFORMER "Oscar Peterson Trio"
REM COMPOSER ""
INDEX 00 27:41:40
INDEX 01 27:44:72
TRACK 12 AUDIO
TITLE "Easy Listening Blues"
PERFORMER "Oscar Peterson Trio"
REM COMPOSER ""
INDEX 00 30:23:67
INDEX 01 30:27:25
[свернуть]

Лог проверки качества

AUDIOCHECKER v2.0 beta (build 457) - by Dester -
~~~~~~~~~~~~~~~~~~~~~~~~~~~~~~~~~~
-=== НЕ РЕДАКТИРУЙТЕ ЭТОТ ФАЙЛ! ===-

Путь: ...\1966(1998) - With Respect To Nat [557 486-2]

1 -=- Oscar Peterson Trio - With Respect To Nat.flac -=- CDDA (99%)

152119620
[свернуть]

Спектр частот

[свернуть]

Скачать Oscar Peterson Trio - With Respect To Nat



password: sergych
[свернуть]

Контрольная сумма (хеш-сумма) архива

MD5: 490052578cb12aa24a40707779dac7ea
[свернуть]
My opinion of release: 10/10
__________________
TAIFUN.Wings of Soul


Последний раз редактировалось sergych, 21.06.2018 в 22:26. Причина: замена потрекового рипа образом
Вверх
Пользователь сказал cпасибо:
TAIFUN (24.04.2013)
  #2
Старый 21.06.2018, 22:28
sergych
Координатор
Досье
 
Аватар для sergych
По умолчанию Re: Oscar Peterson Trio - With Respect To Nat

заменил потрековый рип образом
__________________
TAIFUN.Wings of Soul

Вверх
Похожие темы
Тема Автор Раздел Ответов Последнее сообщение
Альбом Oscar Peterson Trio - The Sound of the Trio sergych Jazz и Blues 1 22.06.2018 05:00
Альбом Oscar Peterson Trio - We Get Requests sergych Jazz и Blues 2 15.05.2013 20:59
Альбом Oscar Peterson Trio - Another Day sergych Jazz и Blues 0 03.12.2011 10:54
Live Oscar Peterson Trio - The Trio. Live From Chicago sergych Jazz и Blues 0 02.03.2011 19:49
Live Oscar Peterson Trio - Live At CBC Studios sergych Jazz и Blues 0 02.03.2011 19:04


Метки
1966 , 1998 , jazz , oscar peterson , oscar peterson trio , swing , with respect to nat

Опции темы

Ваши права в разделе
Вы не можете создавать новые темы
Вы не можете отвечать в темах
Вы не можете прикреплять вложения
Вы не можете редактировать свои сообщения

Быстрый переход



Текущее время: 15:36. Часовой пояс GMT +3.
Powered by vBulletin® Version 3.8.10
Copyright ©2000 - 2018, vBulletin Solutions, Inc. Перевод: zCarot
© 2008 - 2018 Taifun With Song
Яндекс.Метрика