TAIFUN With Song
Навигация
Jazz и Blues Гибкая ритмика, импровизационное начало, гармонии и мелодии - все это Jazz. Blues - жизнеутверждающая музыка, рожденная из душевной боли

А знаете ли Вы, что...
Что значил жест «коза» до эпохи рока и металла?
«Жест «коза» существовал долгое время как магический знак для защиты от сглаза и злых духов. Ронни Джеймс Дио — солист групп Rainbow и Black Sabbath — был первым, кто показал этот жест на рок-концерте. Фанаты переняли его и теперь «коза» очень популярна среди рокеров и металлистов.»
 
Опции темы

  #1
Старый 25.07.2012, 10:28
sergych
Координатор
Досье
 
Аватар для sergych
Релиз Oscar Peterson & Jon Faddis


1975 - Oscar Peterson & Jon Faddis




Исполнитель/Artist: Oscar Peterson & Jon Faddis
Альбом/Album: Oscar Peterson & Jon Faddis
Год/Year: 1975
Ремастеринг/Remaster: 2000
Жанр/Genre: Jazz
Страна/Country: Соединённые Штаты
Рекорд-лейбл/Record label: Pablo Records / Fantasy Inc.
Номер в каталоге/Catalogue #: OJCCD-1036-2 (2310-743)
Формат/Format: Free Lossless Audio Codec (*.flac)
Качество/Quality: Lossless
Тип рипа/RIP Type: image+.cue
Продолжительность/Length: 00:46:19
Источник/Source: Собственный рип
Размер/Size: 259.5 MB

Сканы в комплекте

Треклист

01. Things Ain't What They Used To Be [0:10:23.67]
02. Autumn Leaves [0:06:51.43]
03. Take The ''A'' Train [0:07:58.00]
04. Blues For Birks [0:07:22.17]
05. Summertime [0:07:28.05]
06. Lester Leaps In [0:06:25.23]
[свернуть]

youtube.com

[свернуть]

Исполнители/Performers


Piano – Oscar Peterson
Trumpet – Jon Faddis
[свернуть]

EAC лог

Exact Audio Copy V1.3 from 2. September 2016

EAC extraction logfile from 4. June 2018, 20:49

Oscar Peterson & Jon Faddis / Oscar Peterson & Jon Faddis

Used drive : ATAPI iHAS124 D Adapter: 0 ID: 2

Read mode : Secure
Utilize accurate stream : Yes
Defeat audio cache : Yes
Make use of C2 pointers : No

Read offset correction : 6
Overread into Lead-In and Lead-Out : No
Fill up missing offset samples with silence : Yes
Delete leading and trailing silent blocks : No
Null samples used in CRC calculations : Yes
Used interface : Installed external ASPI interface

Used output format : User Defined Encoder
Selected bitrate : 1024 kBit/s
Quality : High
Add ID3 tag : No
Command line compressor : C:\Program Files (x86)\Exact Audio Copy\Flac\flac.exe
Additional command line options : -6 -V -T "ARTIST=%artist%" -T "TITLE=%title%" -T "ALBUM=%albumtitle%" -T "DATE=%year%" -T "TRACKNUMBER=%tracknr%" -T "GENRE=%genre%" -T "COMMENT=%comment%" -T "BAND=%albuminterpret%" -T "ALBUMARTIST=%albuminterpret%" -T "COMPOSER=%composer%" %haslyrics%--tag-from-file=LYRICS="%lyricsfile%"%haslyrics% -T "DISCNUMBER=%cdnumber%" -T "TOTALDISCS=%totalcds%" -T "TOTALTRACKS=%numtracks%" %hascover%--picture="%coverfile%"%hascover% %source% -o %dest%


TOC of the extracted CD

Track | Start | Length | Start sector | End sector
---------------------------------------------------------
1 | 0:00.00 | 10:23.67 | 0 | 46791
2 | 10:23.67 | 6:51.43 | 46792 | 77659
3 | 17:15.35 | 7:58.00 | 77660 | 113509
4 | 25:13.35 | 7:22.17 | 113510 | 146676
5 | 32:35.52 | 7:28.05 | 146677 | 180281
6 | 40:03.57 | 6:25.23 | 180282 | 209179


Range status and errors

Selected range

Filename C:\mm\Oscar Peterson\1975(2000) - Oscar Peterson & Jon Faddis [OJCCD-1036-2 (2310-743)]\Oscar Peterson & Jon Faddis - Oscar Peterson & Jon Faddis.wav

Peak level 100.0 %
Extraction speed 1.8 X
Range quality 100.0 %
Test CRC DC61A635
Copy CRC DC61A635
Copy OK

No errors occurred

End of status report

---- CUETools DB Plugin V2.1.6

[CTDB TOCID: Or5QGGZBA.m3jOftIykSmo2xm_M-] found
Submit result: Or5QGGZBA.m3jOftIykSmo2xm_M- has been confirmed
Track | CTDB Status
1 | (13/13) Accurately ripped
2 | (13/13) Accurately ripped
3 | (13/13) Accurately ripped
4 | (13/13) Accurately ripped
5 | (13/13) Accurately ripped
6 | (13/13) Accurately ripped
[свернуть]

Файл CUE

EM GENRE Jazz
REM DATE 1975
REM DISCID 470AE506
REM COMMENT "ExactAudioCopy v1.3"
PERFORMER "Oscar Peterson & Jon Faddis"
TITLE "Oscar Peterson & Jon Faddis"
REM COMPOSER ""
FILE "Oscar Peterson & Jon Faddis - Oscar Peterson & Jon Faddis.flac" WAVE
TRACK 01 AUDIO
TITLE "Things Ain't What They Used To Be"
PERFORMER "Oscar Peterson & Jon Faddis"
REM COMPOSER ""
INDEX 01 00:00:00
TRACK 02 AUDIO
TITLE "Autumn Leaves"
PERFORMER "Oscar Peterson & Jon Faddis"
REM COMPOSER ""
INDEX 00 10:21:60
INDEX 01 10:23:67
TRACK 03 AUDIO
TITLE "Take The ''A'' Train"
PERFORMER "Oscar Peterson & Jon Faddis"
REM COMPOSER ""
INDEX 00 17:13:45
INDEX 01 17:15:35
TRACK 04 AUDIO
TITLE "Blues For Birks"
PERFORMER "Oscar Peterson & Jon Faddis"
REM COMPOSER ""
INDEX 00 25:11:30
INDEX 01 25:13:35
TRACK 05 AUDIO
TITLE "Summertime"
PERFORMER "Oscar Peterson & Jon Faddis"
REM COMPOSER ""
INDEX 00 32:33:55
INDEX 01 32:35:52
TRACK 06 AUDIO
TITLE "Lester Leaps In"
PERFORMER "Oscar Peterson & Jon Faddis"
REM COMPOSER ""
INDEX 00 40:01:70
INDEX 01 40:03:57
[свернуть]

Лог проверки качества

AUDIOCHECKER v2.0 beta (build 457) - by Dester -
~~~~~~~~~~~~~~~~~~~~~~~~~~~~~~~~~~
-=== НЕ РЕДАКТИРУЙТЕ ЭТОТ ФАЙЛ! ===-

Путь: ...\1975(2000) - Oscar Peterson & Jon Faddis [OJCCD-1036-2 (2310-743)]

1 -=- Oscar Peterson & Jon Faddis - Oscar Peterson & Jon Faddis.flac -=- CDDA (100%)

100069188
[свернуть]

Спектр частот

[свернуть]

Скачать Oscar Peterson & Jon Faddis



password: sergych
[свернуть]

Контрольная сумма (хеш-сумма) архива

MD5: ea3c01ba9fa59925c6e09ca0bfcc6304
[свернуть]
My opinion of release: 9/10
__________________
TAIFUN.Wings of Soul


Последний раз редактировалось sergych, 05.06.2018 в 21:27. Причина: замена потрекового рипа образом
Вверх
2 пользователя(ей) сказали cпасибо:
johnsilver (06.06.2018), TAIFUN (06.06.2018)
  #2
Старый 05.06.2018, 21:28
sergych
Координатор
Досье
 
Аватар для sergych
По умолчанию Re: Oscar Peterson & Jon Faddis

заменил потрековый рип образом, добавил пропущенный ранее скан
__________________
TAIFUN.Wings of Soul

Вверх
2 пользователя(ей) сказали cпасибо:
johnsilver (06.06.2018), TAIFUN (06.06.2018)
Похожие темы
Тема Автор Раздел Ответов Последнее сообщение
Альбом Ben Webster & Oscar Peterson - Ben Webster Meets Oscar Peterson sergych Jazz и Blues 1 01.06.2018 17:07
Альбом Oscar Peterson Trio - Another Day sergych Jazz и Blues 0 03.12.2011 10:54
Альбом Oscar Peterson - Oscar Peterson plays Porgy & Bess sergych Jazz и Blues 0 27.12.2008 06:28
Сборник Oscar Peterson - An Oscar Peterson Christmas sergych Jazz и Blues 0 27.12.2008 05:27
Альбом Count Basie & Oscar Peterson - The Timekeepers (Count Basie Meets Oscar Peterson) sergych Jazz и Blues 0 26.12.2008 04:10


Метки
1975 , jazz , jon faddis , oscar peterson , oscar peterson & jon faddis

Опции темы

Ваши права в разделе
Вы не можете создавать новые темы
Вы не можете отвечать в темах
Вы не можете прикреплять вложения
Вы не можете редактировать свои сообщения

Быстрый переход



Текущее время: 02:51. Часовой пояс GMT +3.
Powered by vBulletin® Version 3.8.10
Copyright ©2000 - 2018, vBulletin Solutions, Inc. Перевод: zCarot
© 2008 - 2018 Taifun With Song
Яндекс.Метрика