TAIFUN With Song
Навигация
Jazz и Blues Гибкая ритмика, импровизационное начало, гармонии и мелодии - все это Jazz. Blues - жизнеутверждающая музыка, рожденная из душевной боли

А знаете ли Вы, что...
Влияние скрипки на пауков!
«Если заиграть перед пауками на скрипке, то они выйдут из своих укрытий!»
 
Опции темы

  #1
Старый 18.12.2010, 05:37
sergych
Координатор
Досье
 
Аватар для sergych
Релиз Oscar Peterson - Cheek To Cheek


2006 - Oscar Peterson - Cheek To Cheek




Исполнитель/Artist: Oscar Peterson
Альбом/Album: Cheek To Cheek
Год/Year: 2006
Жанр/Genre: Jazz, Swing
Страна/Country: Германия
Рекорд-лейбл/Record label: Membran Music
Номер в каталоге/Catalogue #: 220999-205
Формат/Format: Free Lossless Audio Codec (*.flac)
Качество/Quality: Lossless
Тип рипа/RIP Type: image+.cue
Продолжительность/Length: 01:13:11
Источник/Source: Собственный рип
Размер/Size: 293.5 MB

Сканы в комплекте

Треклист

Los Angeles, december, 1952
01. Fascinating Rythms [0:02:57.14]
02. Prelude To Kiss [0:03:16.68]
03. Just A-Sittin' And A-Rockin' [0:03:41.60]
04. Cheek To Cheek [0:03:01.52]
05. It Ain't Necessairly [0:03:12.46]
06. What Is This Thing Called Love [0:03:09.02]
07. Night And Day [0:03:40.45]
08. Long Ago And Far Away [0:03:46.12]
09. Easter Parade [0:03:14.36]

Hollywood, december, 1953
10. Tea For Two [0:06:07.24]
11. The Song Is You [0:02:26.24]
12. Blue Moon [0:02:54.56]
13. Without A Song [0:02:56.44]
14. The Lady Is A Tramp [0:02:54.22]
15. I Want To Be Happy [0:05:35.17]
16. Lover [0:07:15.55]

Los Angeles, november 1 and december 4, 1952
17. The Man I Love [0:03:31.46]
18. Somebody Loves Me [0:03:22.07]
19. I've Got A Crush On You [0:02:53.40]
20. Strike Up The Band [0:03:13.26]
[свернуть]

youtube.com

[свернуть]

Исполнители/Performers

Oscar Peterson - piano
Barney Kessel - guitar (1-9, 17-20)
Ray Brown - bass
Herb Ellis - guitar (10-16)
[свернуть]

EAC лог

Exact Audio Copy V1.3 from 2. September 2016

EAC extraction logfile from 6. July 2018, 1:55

Oscar Peterson / Cheek To Cheek

Used drive : ATAPI iHAS124 D Adapter: 0 ID: 2

Read mode : Secure
Utilize accurate stream : Yes
Defeat audio cache : Yes
Make use of C2 pointers : No

Read offset correction : 6
Overread into Lead-In and Lead-Out : No
Fill up missing offset samples with silence : Yes
Delete leading and trailing silent blocks : No
Null samples used in CRC calculations : Yes
Used interface : Installed external ASPI interface

Used output format : User Defined Encoder
Selected bitrate : 1024 kBit/s
Quality : High
Add ID3 tag : No
Command line compressor : C:\Program Files (x86)\Exact Audio Copy\Flac\flac.exe
Additional command line options : -6 -V -T "ARTIST=%artist%" -T "TITLE=%title%" -T "ALBUM=%albumtitle%" -T "DATE=%year%" -T "TRACKNUMBER=%tracknr%" -T "GENRE=%genre%" -T "COMMENT=%comment%" -T "BAND=%albuminterpret%" -T "ALBUMARTIST=%albuminterpret%" -T "COMPOSER=%composer%" %haslyrics%--tag-from-file=LYRICS="%lyricsfile%"%haslyrics% -T "DISCNUMBER=%cdnumber%" -T "TOTALDISCS=%totalcds%" -T "TOTALTRACKS=%numtracks%" %hascover%--picture="%coverfile%"%hascover% %source% -o %dest%


TOC of the extracted CD

Track | Start | Length | Start sector | End sector
---------------------------------------------------------
1 | 0:00.00 | 2:57.14 | 0 | 13288
2 | 2:57.14 | 3:16.68 | 13289 | 28056
3 | 6:14.07 | 3:41.60 | 28057 | 44691
4 | 9:55.67 | 3:01.52 | 44692 | 58318
5 | 12:57.44 | 3:12.46 | 58319 | 72764
6 | 16:10.15 | 3:09.02 | 72765 | 86941
7 | 19:19.17 | 3:40.45 | 86942 | 103486
8 | 22:59.62 | 3:46.12 | 103487 | 120448
9 | 26:45.74 | 3:14.36 | 120449 | 135034
10 | 30:00.35 | 6:07.24 | 135035 | 162583
11 | 36:07.59 | 2:26.24 | 162584 | 173557
12 | 38:34.08 | 2:54.56 | 173558 | 186663
13 | 41:28.64 | 2:56.44 | 186664 | 199907
14 | 44:25.33 | 2:54.22 | 199908 | 212979
15 | 47:19.55 | 5:35.17 | 212980 | 238121
16 | 52:54.72 | 7:15.55 | 238122 | 270801
17 | 60:10.52 | 3:31.46 | 270802 | 286672
18 | 63:42.23 | 3:22.07 | 286673 | 301829
19 | 67:04.30 | 2:53.40 | 301830 | 314844
20 | 69:57.70 | 3:13.26 | 314845 | 329345


Range status and errors

Selected range

Filename C:\mm\Oscar Peterson\2006 - Cheek To Cheek [220999-205]\Oscar Peterson - Cheek To Cheek.wav

Peak level 100.0 %
Extraction speed 2.1 X
Range quality 100.0 %
Test CRC 7603490E
Copy CRC 7603490E
Copy OK

No errors occurred

End of status report

---- CUETools DB Plugin V2.1.6

[CTDB TOCID: Ms6339pZ1tE0f9cG_wurRNCN8x0-] found
Submit result: Ms6339pZ1tE0f9cG_wurRNCN8x0- has been confirmed
Track | CTDB Status
1 | (6/6) Accurately ripped
2 | (6/6) Accurately ripped
3 | (6/6) Accurately ripped
4 | (6/6) Accurately ripped
5 | (6/6) Accurately ripped
6 | (6/6) Accurately ripped
7 | (6/6) Accurately ripped
8 | (6/6) Accurately ripped
9 | (6/6) Accurately ripped
10 | (6/6) Accurately ripped
11 | (6/6) Accurately ripped
12 | (6/6) Accurately ripped
13 | (6/6) Accurately ripped
14 | (6/6) Accurately ripped
15 | (6/6) Accurately ripped
16 | (6/6) Accurately ripped
17 | (6/6) Accurately ripped
18 | (6/6) Accurately ripped
19 | (6/6) Accurately ripped
20 | (6/6) Accurately ripped
[свернуть]

Файл CUE

REM GENRE Jazz
REM DATE 1952
REM DISCID 33112714
REM COMMENT "ExactAudioCopy v1.3"
PERFORMER "Oscar Peterson"
TITLE "Cheek To Cheek"
REM COMPOSER ""
FILE "Oscar Peterson - Cheek To Cheek.flac" WAVE
TRACK 01 AUDIO
TITLE "Fascinating Rythms"
PERFORMER "Oscar Peterson"
REM COMPOSER ""
INDEX 01 00:00:00
TRACK 02 AUDIO
TITLE "Prelude To Kiss"
PERFORMER "Oscar Peterson"
REM COMPOSER ""
INDEX 00 02:55:14
INDEX 01 02:57:14
TRACK 03 AUDIO
TITLE "Just A-Sittin' And A-Rockin'"
PERFORMER "Oscar Peterson"
REM COMPOSER ""
INDEX 00 06:12:07
INDEX 01 06:14:07
TRACK 04 AUDIO
TITLE "Cheek To Cheek"
PERFORMER "Oscar Peterson"
REM COMPOSER ""
INDEX 00 09:53:67
INDEX 01 09:55:67
TRACK 05 AUDIO
TITLE "It Ain't Necessairly"
PERFORMER "Oscar Peterson"
REM COMPOSER ""
INDEX 00 12:55:44
INDEX 01 12:57:44
TRACK 06 AUDIO
TITLE "What Is This Thing Called Love"
PERFORMER "Oscar Peterson"
REM COMPOSER ""
INDEX 00 16:08:15
INDEX 01 16:10:15
TRACK 07 AUDIO
TITLE "Night And Day"
PERFORMER "Oscar Peterson"
REM COMPOSER ""
INDEX 00 19:17:17
INDEX 01 19:19:17
TRACK 08 AUDIO
TITLE "Long Ago And Far Away"
PERFORMER "Oscar Peterson"
REM COMPOSER ""
INDEX 00 22:57:62
INDEX 01 22:59:62
TRACK 09 AUDIO
TITLE "Easter Parade"
PERFORMER "Oscar Peterson"
REM COMPOSER ""
INDEX 00 26:43:74
INDEX 01 26:45:74
TRACK 10 AUDIO
TITLE "Tea For Two"
PERFORMER "Oscar Peterson"
REM COMPOSER ""
INDEX 00 29:58:35
INDEX 01 30:00:35
TRACK 11 AUDIO
TITLE "The Song Is You"
PERFORMER "Oscar Peterson"
REM COMPOSER ""
INDEX 00 36:05:59
INDEX 01 36:07:59
TRACK 12 AUDIO
TITLE "Blue Moon"
PERFORMER "Oscar Peterson"
REM COMPOSER ""
INDEX 00 38:32:08
INDEX 01 38:34:08
TRACK 13 AUDIO
TITLE "Without A Song"
PERFORMER "Oscar Peterson"
REM COMPOSER ""
INDEX 00 41:26:64
INDEX 01 41:28:64
TRACK 14 AUDIO
TITLE "The Lady Is A Tramp"
PERFORMER "Oscar Peterson"
REM COMPOSER ""
INDEX 00 44:23:33
INDEX 01 44:25:33
TRACK 15 AUDIO
TITLE "I Want To Be Happy"
PERFORMER "Oscar Peterson"
REM COMPOSER ""
INDEX 00 47:17:55
INDEX 01 47:19:55
TRACK 16 AUDIO
TITLE "Lover"
PERFORMER "Oscar Peterson"
REM COMPOSER ""
INDEX 00 52:52:72
INDEX 01 52:54:72
TRACK 17 AUDIO
TITLE "The Man I Love"
PERFORMER "Oscar Peterson"
REM COMPOSER ""
INDEX 00 60:08:52
INDEX 01 60:10:52
TRACK 18 AUDIO
TITLE "Somebody Loves Me"
PERFORMER "Oscar Peterson"
REM COMPOSER ""
INDEX 00 63:40:23
INDEX 01 63:42:23
TRACK 19 AUDIO
TITLE "I've Got A Crush On You"
PERFORMER "Oscar Peterson"
REM COMPOSER ""
INDEX 00 67:02:30
INDEX 01 67:04:30
TRACK 20 AUDIO
TITLE "Strike Up The Band"
PERFORMER "Oscar Peterson"
REM COMPOSER ""
INDEX 00 69:55:70
INDEX 01 69:57:70
[свернуть]

Лог проверки качества

AUDIOCHECKER v2.0 beta (build 457) - by Dester -
~~~~~~~~~~~~~~~~~~~~~~~~~~~~~~~~~~
-=== НЕ РЕДАКТИРУЙТЕ ЭТОТ ФАЙЛ! ===-

Путь: ...\2006 - Cheek To Cheek [220999-205]

1 -=- Oscar Peterson - Cheek To Cheek.flac -=- CDDA (76%)

223657652
[свернуть]

Спектр частот

[свернуть]

Скачать Oscar Peterson - Cheek To Cheek



password: sergych
[свернуть]

Контрольная сумма (хеш-сумма) архива

MD5: 5326f4abd0d8fc3cfb6424b9cff50ef4
[свернуть]
My opinion of release: 10/10

Release info RInfo

Год выпуска указан приблизительно, т.к. нигде не указан. В инете точной инфы тоже не нашёл (при том, что предложений много), лишь по косвенным признакам (исходя из предположения о хронологичности выпусков) - конец 2005 года, а скорее всё-таки 2006 год.
__________________
TAIFUN.Wings of Soul


Последний раз редактировалось sergych, 09.07.2018 в 09:02. Причина: заменил mp3-шки образом lossless
Вверх
Пользователь сказал cпасибо:
vovarad (19.12.2010)
  #2
Старый 09.07.2018, 09:07
sergych
Координатор
Досье
 
Аватар для sergych
По умолчанию Re: Oscar Peterson - Cheek To Cheek

заменил когда-то запощенные мной mp3-шки lossless образом
__________________
TAIFUN.Wings of Soul

Вверх
Похожие темы
Тема Автор Раздел Ответов Последнее сообщение
Альбом Ben Webster & Oscar Peterson - Ben Webster Meets Oscar Peterson sergych Jazz и Blues 1 01.06.2018 17:07
Альбом Fausto Papetti - Cheek To Cheek PUPOKIN Instrumental 0 07.12.2010 09:51
Альбом Oscar Peterson - Oscar Peterson plays Porgy & Bess sergych Jazz и Blues 0 27.12.2008 06:28
Сборник Oscar Peterson - An Oscar Peterson Christmas sergych Jazz и Blues 0 27.12.2008 05:27
Альбом Count Basie & Oscar Peterson - The Timekeepers (Count Basie Meets Oscar Peterson) sergych Jazz и Blues 0 26.12.2008 04:10


Метки
2005 , 2007 , instrumental , jazz , oscar peterson

Опции темы

Ваши права в разделе
Вы не можете создавать новые темы
Вы не можете отвечать в темах
Вы не можете прикреплять вложения
Вы не можете редактировать свои сообщения

Быстрый переход



Текущее время: 13:11. Часовой пояс GMT +3.
Powered by vBulletin® Version 3.8.10
Copyright ©2000 - 2018, vBulletin Solutions, Inc. Перевод: zCarot
© 2008 - 2018 Taifun With Song
Яндекс.Метрика