TAIFUN With Song
Навигация
Вернуться   TAIFUN With Song > Music (обменник) > Rock > Progressive Rock
Расширенный поиск
Progressive Rock Единственной универсальной характеристикой прогрессивного рока является усложнение музыкальной формы. Это проявляется в удлиннении и усложнении музыкальных пьес, тяготении к циклическим формам академической музыки; расширении репертуара используемых тембров, усложнении метра и ритма, использовании нетрадиционных для рока мелодических и гармонических решений; поэзии, уходящей от тем развлекательной музыки и тяготеющей к философским «вечным темам», фантастической и фентезийной тематике; переплетении с классической и современной академической музыкой, джазом.

А знаете ли Вы, что...
Что поётся в самой короткой в мире песне?
«Песня английской группы Napalm Death "You Suffer" длится 1,316 секунды и считается самой короткой в мире. В ней поётся только одна фраза: "You suffer — but why?" («Вы страдаете — но зачем?»), и её очень трудно разобрать. Сначала песня была издана на альбоме Scum, а в 1989 году как сингл на отдельном диске.»
 
Опции темы

  #1
Старый 14.11.2010, 16:22
sergych
Координатор
Досье
 
Аватар для sergych
Релиз David Gilmour - David Gilmour


1978(2006) - David Gilmour - David Gilmour




Исполнитель/Artist: David Gilmour
Альбом/Album: David Gilmour
Год/Year: 1978
Ремастеринг/Remaster: 2006
Жанр/Genre: Rock, Psychedelic rock, Progressive Rock
Страна/Country: Германия
Рекорд-лейбл/Record label: Parlophone
Номер в каталоге/Catalogue #: 0946 3 70843 2 8
Формат/Format: Free Lossless Audio Codec (*.flac)
Качество/Quality: Lossless
Тип рипа/RIP Type: image+.cue
Продолжительность/Length: 00:48:45
Источник/Source: Собственный рип
Размер/Size: 313.3 MB

Сканы в комплекте

Треклист

01. Mihalis [0:06:00.58]
02. There's No Way Out Of Here [0:05:23.45]
03. Cry From The Street [0:05:19.35]
04. So Far Away [0:06:10.30]
05. Short And Sweet [0:05:34.66]
06. Raise My Rent [0:05:52.11]
07. No Way [0:06:14.61]
08. Deafinitely [0:04:28.07]
09. I Can't Breathe Anymore [0:03:40.52]
[свернуть]

youtube.com

[свернуть]

Исполнители/Performers

David Gilmour – lead vocals; electric and acoustic guitars; keyboards; lap steel guitar on "No Way" and "I Can't Breathe Anymore"; piano on "So Far Away"; harmonica on "There's No Way Out of Here"
Rick Wills – bass guitar; backing vocals
Willie Wilson – drums; percussion
Mick Weaver – additional piano on "So Far Away"
Carlena Williams, Debbie Doss, Shirley Roden – backing vocals on "There's No Way Out of Here" and "So Far Away"
[свернуть]

EAC лог

Exact Audio Copy V1.3 from 2. September 2016

EAC extraction logfile from 10. June 2018, 16:49

David Gilmour / David Gilmour

Used drive : ATAPI iHAS124 D Adapter: 0 ID: 2

Read mode : Secure
Utilize accurate stream : Yes
Defeat audio cache : Yes
Make use of C2 pointers : No

Read offset correction : 6
Overread into Lead-In and Lead-Out : No
Fill up missing offset samples with silence : Yes
Delete leading and trailing silent blocks : No
Null samples used in CRC calculations : Yes
Used interface : Installed external ASPI interface

Used output format : User Defined Encoder
Selected bitrate : 1024 kBit/s
Quality : High
Add ID3 tag : No
Command line compressor : C:\Program Files (x86)\Exact Audio Copy\Flac\flac.exe
Additional command line options : -6 -V -T "ARTIST=%artist%" -T "TITLE=%title%" -T "ALBUM=%albumtitle%" -T "DATE=%year%" -T "TRACKNUMBER=%tracknr%" -T "GENRE=%genre%" -T "COMMENT=%comment%" -T "BAND=%albuminterpret%" -T "ALBUMARTIST=%albuminterpret%" -T "COMPOSER=%composer%" %haslyrics%--tag-from-file=LYRICS="%lyricsfile%"%haslyrics% -T "DISCNUMBER=%cdnumber%" -T "TOTALDISCS=%totalcds%" -T "TOTALTRACKS=%numtracks%" %hascover%--picture="%coverfile%"%hascover% %source% -o %dest%


TOC of the extracted CD

Track | Start | Length | Start sector | End sector
---------------------------------------------------------
1 | 0:00.00 | 6:00.58 | 0 | 27057
2 | 6:00.58 | 5:23.45 | 27058 | 51327
3 | 11:24.28 | 5:19.35 | 51328 | 75287
4 | 16:43.63 | 6:10.30 | 75288 | 103067
5 | 22:54.18 | 5:34.66 | 103068 | 128183
6 | 28:29.09 | 5:52.11 | 128184 | 154594
7 | 34:21.20 | 6:14.61 | 154595 | 182705
8 | 40:36.06 | 4:28.07 | 182706 | 202812
9 | 45:04.13 | 3:40.52 | 202813 | 219364


Range status and errors

Selected range

Filename C:\mm\Pink Floyd\David Gilmour\1978(2006) - David Gilmour [0946 3 70843 2 8]\David Gilmour - David Gilmour.wav

Peak level 100.0 %
Extraction speed 1.7 X
Range quality 100.0 %
Test CRC EBDC669F
Copy CRC EBDC669F
Copy OK

No errors occurred

End of status report

---- CUETools DB Plugin V2.1.6

[CTDB TOCID: b7Aze3HUarjFBbAScjr7qqCVX10-] found
Submit result: b7Aze3HUarjFBbAScjr7qqCVX10- has been confirmed
Track | CTDB Status
1 | (698/709) Accurately ripped
2 | (700/709) Accurately ripped
3 | (701/709) Accurately ripped
4 | (700/709) Accurately ripped
5 | (700/709) Accurately ripped
6 | (699/709) Accurately ripped
7 | (698/709) Accurately ripped
8 | (699/709) Accurately ripped
9 | (700/709) Accurately ripped
[свернуть]

Файл CUE

REM GENRE "Progressive Rock"
REM DATE 1978
REM DISCID 6D0B6C09
REM COMMENT "ExactAudioCopy v1.3"
PERFORMER "David Gilmour"
TITLE "David Gilmour"
REM COMPOSER ""
FILE "David Gilmour - David Gilmour.flac" WAVE
TRACK 01 AUDIO
TITLE "Mihalis"
PERFORMER "David Gilmour"
REM COMPOSER ""
INDEX 01 00:00:00
TRACK 02 AUDIO
TITLE "There's No Way Out Of Here"
PERFORMER "David Gilmour"
REM COMPOSER ""
INDEX 00 05:58:39
INDEX 01 06:00:58
TRACK 03 AUDIO
TITLE "Cry From The Street"
PERFORMER "David Gilmour"
REM COMPOSER ""
INDEX 00 11:23:25
INDEX 01 11:24:28
TRACK 04 AUDIO
TITLE "So Far Away"
PERFORMER "David Gilmour"
REM COMPOSER ""
INDEX 00 16:40:31
INDEX 01 16:43:63
TRACK 05 AUDIO
TITLE "Short And Sweet"
PERFORMER "David Gilmour"
REM COMPOSER ""
INDEX 00 22:51:04
INDEX 01 22:54:18
TRACK 06 AUDIO
TITLE "Raise My Rent"
PERFORMER "David Gilmour"
REM COMPOSER ""
INDEX 00 28:28:30
INDEX 01 28:29:09
TRACK 07 AUDIO
TITLE "No Way"
PERFORMER "David Gilmour"
REM COMPOSER ""
INDEX 00 34:19:56
INDEX 01 34:21:20
TRACK 08 AUDIO
TITLE "Deafinitely"
PERFORMER "David Gilmour"
REM COMPOSER ""
INDEX 00 40:33:44
INDEX 01 40:36:06
TRACK 09 AUDIO
TITLE "I Can't Breathe Anymore"
PERFORMER "David Gilmour"
REM COMPOSER ""
INDEX 01 45:04:13
[свернуть]

Лог проверки качества

AUDIOCHECKER v2.0 beta (build 457) - by Dester -
~~~~~~~~~~~~~~~~~~~~~~~~~~~~~~~~~~
-=== НЕ РЕДАКТИРУЙТЕ ЭТОТ ФАЙЛ! ===-

Путь: ...\1978(2006) - David Gilmour [0946 3 70843 2 8]

1 -=- David Gilmour - David Gilmour.flac -=- CDDA (99%)

244044180
[свернуть]

Спектр частот

[свернуть]

Скачать David Gilmour - David Gilmour



password: sergych
[свернуть]

Контрольная сумма (хеш-сумма) архива

MD5: 511ca06bf40bcc3419be7ed38dc96ed4
[свернуть]
My opinion of release: 9/10
__________________
TAIFUN.Wings of Soul


Последний раз редактировалось sergych, 10.06.2018 в 19:04. Причина: замена инетовских mp3-шек собственным рипом
Вверх
3 пользователя(ей) сказали cпасибо:
Показать список поблагодаривших
  #2
Старый 10.06.2018, 19:07
sergych
Координатор
Досье
 
Аватар для sergych
По умолчанию Re: David Gilmour - David Gilmour

Замена "умерших" инетовских mp3 собственным lossless-рипом
__________________
TAIFUN.Wings of Soul

Вверх
2 пользователя(ей) сказали cпасибо:
johnsilver (10.06.2018), swint68 (11.06.2018)
Похожие темы
Тема Автор Раздел Ответов Последнее сообщение
Альбом David Gilmour - Rattle That Lock TAIFUN Progressive Rock 2 12.06.2018 18:34
Альбом The Orb featuring David Gilmour - Metallic Spheres sergych Progressive Rock 0 21.09.2012 13:50
Альбом David Gilmour - On An Island sergych Progressive Rock 1 27.11.2010 07:56
Live David Gilmour - Le Zenith, Paris, France sergych Progressive Rock 0 16.11.2010 11:19


Метки
1978 , david gilmour , pink floyd , progressive rock , psychedelic rock , rock

Опции темы

Ваши права в разделе
Вы не можете создавать новые темы
Вы не можете отвечать в темах
Вы не можете прикреплять вложения
Вы не можете редактировать свои сообщения

Быстрый переход



Текущее время: 07:30. Часовой пояс GMT +3.
Powered by vBulletin® Version 3.8.10
Copyright ©2000 - 2018, vBulletin Solutions, Inc. Перевод: zCarot
© 2008 - 2018 Taifun With Song
Яндекс.Метрика