TAIFUN With Song
Навигация
Вернуться   TAIFUN With Song > Music (обменник) > POP > Зарубежная Поп-Музыка
Расширенный поиск
А знаете ли Вы, что...
Кто написал песню «Во поле берёза стояла»?
«Многие источники утверждают, что песню «Во поле берёза стояла» написал татарский поэт Нигмат Ибрагимов. Однако эта песня всё-таки является русской народной.»
 
Опции темы

  #1
Старый 24.09.2016, 16:25
sergych
Координатор
Досье
 
Аватар для sergych
Релиз Whitney Houston - I Look To You


2009 - Whitney Houston - I Look To You




Исполнитель/Artist: Whitney Houston
Альбом/Album: I Look To You
Год/Year: 2009
Жанр/Genre: Pop, R&B, Soul, adult contemporary
Страна/Country: Европа
Рекорд-лейбл/Record label: Arista / Sony Music
Номер в каталоге/Catalogue #: 88697 10033 2
Формат/Format: Free Lossless Audio Codec (*.flac)
Качество/Quality: Lossless
Тип рипа/RIP Type: image+.cue
Продолжительность/Length: 00:44:44
Источник/Source: Собственный рип
Размер/Size: 383.7 MB

Сканы в комплекте

Треклист

01. Million Dollar Bill [0:03:24.20]
02. Nothin' But Love [0:03:36.23]
03. Call You Tonight [0:04:10.05]
04. I Look To You [0:04:27.25]
05. Whitney Houston feat. Akon / Like I Never Left [0:03:51.35]
06. A Song For You [0:04:12.60]
07. I Didn't Know My Own Strength [0:03:41.66]
08. Worth It [0:04:40.68]
09. For The Lovers [0:04:14.63]
10. I Got You [0:04:13.68]
11. Salute [0:04:10.44]
[свернуть]

youtube.com

[свернуть]

Исполнители/Performers

Whitney Houston – lead vocals (All tracks), executive producer, songwriter (5, 10)
Aliaune "Akon" Thiam – music producer (tracks 5, 10), vocals (5)
Courtney Blooding – background vocals
Charlotte Gibson, Gary Houston – background vocals (track 8)
Tavia Ivey – background vocals (tracks 2, 8)
Eric Hudson – music producer, All instruments (track 8)
Alicia Keys – vocal producer, vocal arrangement, music producer (track 1)
Emanuel Kiriakou – producer, all other instruments (track 4)
Donnie Lyle – guitar, musical direction
Kenny Mason – choir director (track 4)
Jochem van der Saag – synthesizer, recording engineer, drum machine, audio mixing, sound design (track 7)
Bernt Rune Stray – guitar
[свернуть]

EAC лог

Exact Audio Copy V1.2 from 12. August 2016

EAC extraction logfile from 22. September 2016, 23:20

Whitney Houston / I Look To You

Used drive : PLEXTOR DVDR PX-716A Adapter: 1 ID: 0

Read mode : Secure
Utilize accurate stream : Yes
Defeat audio cache : Yes
Make use of C2 pointers : No

Read offset correction : 30
Overread into Lead-In and Lead-Out : No
Fill up missing offset samples with silence : Yes
Delete leading and trailing silent blocks : No
Null samples used in CRC calculations : Yes
Used interface : Native Win32 interface for Win NT & 2000

Used output format : User Defined Encoder
Selected bitrate : 1024 kBit/s
Quality : High
Add ID3 tag : No
Command line compressor : C:\Program Files (x86)\Exact Audio Copy\FLAC\FLAC.EXE
Additional command line options : -6 -V -T "ARTIST=%artist%" -T "TITLE=%title%" -T "ALBUM=%albumtitle%" -T "DATE=%year%" -T "TRACKNUMBER=%tracknr%" -T "GENRE=%genre%" -T "COMMENT=%comment%" -T "BAND=%albuminterpret%" -T "ALBUMARTIST=%albuminterpret%" -T "COMPOSER=%composer%" %haslyrics%--tag-from-file=LYRICS="%lyricsfile%"%haslyrics% -T "DISCNUMBER=%cdnumber%" -T "TOTALDISCS=%totalcds%" -T "TOTALTRACKS=%numtracks%" %hascover%--picture="%coverfile%"%hascover% %source% -o %dest%


TOC of the extracted CD

Track | Start | Length | Start sector | End sector
---------------------------------------------------------
1 | 0:00.00 | 3:24.20 | 0 | 15319
2 | 3:24.20 | 3:36.23 | 15320 | 31542
3 | 7:00.43 | 4:10.05 | 31543 | 50297
4 | 11:10.48 | 4:27.25 | 50298 | 70347
5 | 15:37.73 | 3:51.35 | 70348 | 87707
6 | 19:29.33 | 4:12.60 | 87708 | 106667
7 | 23:42.18 | 3:41.66 | 106668 | 123308
8 | 27:24.09 | 4:40.68 | 123309 | 144376
9 | 32:05.02 | 4:14.63 | 144377 | 163489
10 | 36:19.65 | 4:13.68 | 163490 | 182532
11 | 40:33.58 | 4:10.44 | 182533 | 201326


Range status and errors

Selected range

Filename C:\mm\Whitney Houston\2009 - I Look To You [88697 10033 2]\Whitney Houston - I Look To You.wav

Peak level 100.0 %
Extraction speed 11.9 X
Range quality 100.0 %
Test CRC A48EF1AA
Copy CRC A48EF1AA
Copy OK

No errors occurred


AccurateRip summary

Track 1 accurately ripped (confidence 129) [1249C1CC] (AR v2)
Track 2 accurately ripped (confidence 129) [5507E991] (AR v2)
Track 3 accurately ripped (confidence 128) [B22F1366] (AR v2)
Track 4 accurately ripped (confidence 129) [2BA7284C] (AR v2)
Track 5 accurately ripped (confidence 128) [5FBA5E3C] (AR v2)
Track 6 accurately ripped (confidence 126) [9B9769E5] (AR v2)
Track 7 accurately ripped (confidence 126) [4F8D5FED] (AR v2)
Track 8 accurately ripped (confidence 127) [1716E592] (AR v2)
Track 9 accurately ripped (confidence 126) [70EFAB58] (AR v2)
Track 10 accurately ripped (confidence 127) [B2DBDDEF] (AR v2)
Track 11 accurately ripped (confidence 127) [397390E6] (AR v2)

All tracks accurately ripped

End of status report

---- CUETools DB Plugin V2.1.6

[CTDB TOCID: G5Qw9EnfSg5atowTR55kulhPG74-] found
Submit result: G5Qw9EnfSg5atowTR55kulhPG74- has been confirmed
Track | CTDB Status
1 | (278/278) Accurately ripped
2 | (278/278) Accurately ripped
3 | (278/278) Accurately ripped
4 | (278/278) Accurately ripped
5 | (278/278) Accurately ripped
6 | (278/278) Accurately ripped
7 | (278/278) Accurately ripped
8 | (278/278) Accurately ripped
9 | (277/278) Accurately ripped
10 | (278/278) Accurately ripped
11 | (277/278) Accurately ripped
[свернуть]

Файл CUE

REM GENRE R&B
REM DATE 2009
REM DISCID 890A7C0B
REM COMMENT "ExactAudioCopy v1.2"
PERFORMER "Whitney Houston"
TITLE "I Look To You"
REM COMPOSER ""
FILE "Whitney Houston - I Look To You.flac" WAVE
TRACK 01 AUDIO
TITLE "Million Dollar Bill"
PERFORMER "Whitney Houston"
REM COMPOSER ""
INDEX 01 00:00:00
TRACK 02 AUDIO
TITLE "Nothin' But Love"
PERFORMER "Whitney Houston"
REM COMPOSER ""
INDEX 01 03:24:20
TRACK 03 AUDIO
TITLE "Call You Tonight"
PERFORMER "Whitney Houston"
REM COMPOSER ""
INDEX 00 06:59:34
INDEX 01 07:00:43
TRACK 04 AUDIO
TITLE "I Look To You"
PERFORMER "Whitney Houston"
REM COMPOSER ""
INDEX 00 11:08:63
INDEX 01 11:10:48
TRACK 05 AUDIO
TITLE "Like I Never Left"
PERFORMER "Whitney Houston feat. Akon"
REM COMPOSER ""
INDEX 00 15:36:19
INDEX 01 15:37:73
TRACK 06 AUDIO
TITLE "A Song For You"
PERFORMER "Whitney Houston"
REM COMPOSER ""
INDEX 00 19:27:53
INDEX 01 19:29:33
TRACK 07 AUDIO
TITLE "I Didn't Know My Own Strength"
PERFORMER "Whitney Houston"
REM COMPOSER ""
INDEX 00 23:40:45
INDEX 01 23:42:18
TRACK 08 AUDIO
TITLE "Worth It"
PERFORMER "Whitney Houston"
REM COMPOSER ""
INDEX 00 27:22:14
INDEX 01 27:24:09
TRACK 09 AUDIO
TITLE "For The Lovers"
PERFORMER "Whitney Houston"
REM COMPOSER ""
INDEX 00 32:03:60
INDEX 01 32:05:02
TRACK 10 AUDIO
TITLE "I Got You"
PERFORMER "Whitney Houston"
REM COMPOSER ""
INDEX 01 36:19:65
TRACK 11 AUDIO
TITLE "Salute"
PERFORMER "Whitney Houston"
REM COMPOSER ""
INDEX 00 40:32:40
INDEX 01 40:33:58
[свернуть]

Лог проверки качества

AUDIOCHECKER v2.0 beta (build 457) - by Dester -
~~~~~~~~~~~~~~~~~~~~~~~~~~~~~~~~~~
-=== НЕ РЕДАКТИРУЙТЕ ЭТОТ ФАЙЛ! ===-

Путь: ...\2009 - I Look To You [88697 10033 2]

1 -=- Whitney Houston - I Look To You.flac -=- MPEG (95%)

183655620
[свернуть]

Спектр частот

[свернуть]

Скачать Whitney Houston - I Look To You



password: sergych

CRC md5: b07c9423bf6b4aef550ec5a017067c8d
[свернуть]
My opinion of release: 9/10

Release info RInfo

Альбом, "засветившийся" на лидирующих позициях многих чартов разных стран.
Хотя, имхо, были у неё альбомы и поинтереснее
__________________
TAIFUN.Wings of Soul

Вверх
Пользователь сказал cпасибо:
swint68 (24.09.2016)
Похожие темы
Тема Автор Раздел Ответов Последнее сообщение
Альбом Whitney Houston - Whitney Houston sergych Зарубежная Поп-Музыка 2 05.08.2016 20:34
Сборник Whitney Houston - Live. Her Greatest Performances sergych Зарубежная Поп-Музыка 0 10.11.2015 21:40
Альбом Whitney Houston - I'm Your Baby Tonight sergych Зарубежная Поп-Музыка 0 31.05.2015 13:27
Сборник Whitney Houston - I Will Always Love You: The Best of Whitney Houston sergych Зарубежная Поп-Музыка 0 22.12.2014 20:12
Альбом Whitney Houston - Whitney sergych Зарубежная Поп-Музыка 0 22.12.2014 19:40


Метки
2009 , adult contemporary , i look to you , pop , r&b , soul , whitney houston

Опции темы

Ваши права в разделе
Вы не можете создавать новые темы
Вы не можете отвечать в темах
Вы не можете прикреплять вложения
Вы не можете редактировать свои сообщения

Быстрый переход



Текущее время: 17:10. Часовой пояс GMT +3.
Powered by vBulletin® Version 3.8.10
Copyright ©2000 - 2018, vBulletin Solutions, Inc. Перевод: zCarot
© 2008 - 2018 Taifun With Song
Яндекс.Метрика