TAIFUN With Song
Навигация
Вернуться   TAIFUN With Song > Music (обменник) > Другие направления музыки > Classical
Расширенный поиск
Classical В этом разделе релизы на классическую музыку.

А знаете ли Вы, что...
Где недавно был совершён акт каннибализма с согласия жертвы?
«В 2001 году в немецком Ротенбурге Армин Майвес поместил в интернете серию каннибальских объявлений в поисках молодого парня в возрасте от 18 до 30 лет, желающего умереть и быть съеденным. На одно из объявлений откликнулся Бернд Брандес. Он, по своему собственному согласию, был убит и частично съеден Майвесом, позже приговорённым к пожизненному заключению. На этот сюжет написана песня «Mein Teil» группы Rammstein.»
 
Опции темы

  #1
Старый 07.12.2010, 20:29
TAIFUN
Admin
Досье
 
Аватар для TAIFUN
По умолчанию Johann Sebastian Bach - The Great Organ at Methuen (Michael Murray) [2000]

2000 - Иоганн Себастьян Бах - Органные произведения (Майкл Маррей)



Композитор/Composer: Johann Sebastian Bach
Исполнитель/Artist: Michael Murray
Альбом/Album: The Great Organ at Methuen
Год/Year: 2000
Издатель/Label: Одиссей
Жанр/Genre: Classical/Organ
Формат/Format: FLAC
Качество/Quality: lossless
Тип рипа/RIP Type: image + .cue
Размер/Size: 174 MB
Продолжительность/Length: 00:39:56

сканы в комплекте

Треклист


01. Fantasia and Fugue in G minor, BWV 542 ('The Great')
02. Toccata in F Major, BWV 540
03. Passacaglia and Fugue in C minor, BWV 582
04. Vater unser im Himmelreich, BWV 737
05. Alle Menschen mussen sterben, BWV 643
[свернуть]

EAC лог

Exact Audio Copy V1.0 beta 1 from 15. November 2010
EAC extraction logfile from 5. December 2010, 21:26
Michael Murray / Bach, The Great Organ at Methuen
Used drive : HL-DT-STDVDRAM GSA-T10N Adapter: 1 ID: 1
Read mode : Secure
Utilize accurate stream : Yes
Defeat audio cache : Yes
Make use of C2 pointers : No
Read offset correction : 667
Overread into Lead-In and Lead-Out : No
Fill up missing offset samples with silence : Yes
Delete leading and trailing silent blocks : No
Null samples used in CRC calculations : Yes
Used interface : Installed external ASPI interface
Used output format : Internal WAV Routines
Sample format : 44.100 Hz; 16 Bit; Stereo
TOC of the extracted CD
Track | Start | Length | Start sector | End sector
---------------------------------------------------------
1 | 0:00.00 | 11:40.30 | 0 | 52529
2 | 11:40.30 | 8:21.50 | 52530 | 90154
3 | 20:02.05 | 14:45.60 | 90155 | 156589
4 | 34:47.65 | 2:32.12 | 156590 | 168001
5 | 37:20.02 | 2:36.15 | 168002 | 179716
Range status and errors
Selected range
Filename C:\Users\Сергей\Desktop\Бах\Michael Murray - Bach, The Great Organ at Methuen.wav
Peak level 97.5 %
Extraction speed 0.2 X
Range quality 99.9 %
Copy CRC E17DC57B
Copy OK
No errors occurred
End of status report
[свернуть]

CDDA Tau Analyzer

[свернуть]

Спектр частот

[свернуть]

Frequency

[свернуть]

Скачать The Great Organ at Methuen

narod.ru

FileFactory

upload.com.ua

megaupload.com

turbobit.net

[свернуть]


My opinion of release: 9/10
__________________
I love music
FAQ по форуму
Правила форума
Жизнь человека - это не самое главное в его жизни...


Последний раз редактировалось TAIFUN, 28.12.2010 в 00:58.
Вверх
2 пользователя(ей) сказали cпасибо:
PUPOKIN (07.12.2010), sergych (07.12.2010)
Похожие темы
Тема Автор Раздел Ответов Последнее сообщение
Биография Johann Sebastian Bach / Иоганн Себастьян Бах TAIFUN Classical [FAQ] 0 07.12.2010 20:55
VA Favorite Organ Works PUPOKIN Classical 0 14.07.2010 15:44
Альбом Jochann Sebastian Bach - Toccatas and Fugues LUСIAN Classical 0 16.07.2009 14:30
Альбом Johann Sebastian Bach / Иоганн Себастьян Бах - The Greatest Classical Hits LUСIAN Classical 0 21.05.2008 17:46
Альбом Johann Sebastian Bach / Иоганн Себастьян Бах - Toccata and Fugue in D minor LUСIAN Classical 0 22.04.2008 03:01


Опции темы

Ваши права в разделе
Вы не можете создавать новые темы
Вы не можете отвечать в темах
Вы не можете прикреплять вложения
Вы не можете редактировать свои сообщения

Быстрый переход



Текущее время: 19:51. Часовой пояс GMT +3.
Powered by vBulletin® Version 3.8.10
Copyright ©2000 - 2018, vBulletin Solutions, Inc. Перевод: zCarot
© 2008 - 2018 Taifun With Song
Яндекс.Метрика