TAIFUN With Song
Навигация
Вернуться   TAIFUN With Song > Music (обменник) > Club & Electronic Music > GOA
Расширенный поиск
GOA Поклонники Goa Trance музыки считают, что она является лучшим (если не единственным) способом достичь измененных состояний сознания без применения химических средств. Является ли только это истиной...

А знаете ли Вы, что...
Кто такой Сироб Вокищнеберг, упомянутый в описании альбома «Яблокитай» группы «Наутилус Помпилиус»?
«В описании альбома «Яблокитай» группы «Наутилус Помпилиус» указан некий профессор Сироб Вокищнеберг, играющий на реверсах. Этот таинственный человек никто иной, как Борис Гребенщиков, записанный наоборот. Таким образом удачно обыграли его работу с реверсами — прокручиванием музыкальных фрагментов в обратном направлении.»
 
Опции темы

  #1
Старый 30.05.2014, 20:58
TAIFUN
Admin
Досье
 
Аватар для TAIFUN
По умолчанию Space Buddha ‎– Jungle Of Whishes


2002 - Space Buddha ‎– Jungle Of Whishes




Исполнитель/Artist: Space Buddha
Альбом/Album: Jungle Of Whishes
Год/Year: 2002
Жанр/Genre: Goa Trance
Страна/Country: Израиль
Рекорд-лейбл/Record label: Agitato Records
Номер в каталоге/Catalogue #: AGE1025
Формат/Format: Free Lossless Audio Codec (*.flac)
Качество/Quality: Lossless
Тип рипа/RIP Type: tracks+.cue
Продолжительность/Length: 00:58:13
Источник/Source: Из интернета
Размер/Size: 373 MB

Сканы в комплекте

Треклист

01. In Denail
02. Liquid Sky
03. Overfly Zone
04. Jungle Of Whishes
05. Macrocosm
06. Paranormal Input
07. I Think Therefor I Am
08. Elevation
[свернуть]

youtube.com

[свернуть]

EAC лог

Exact Audio Copy V0.99 prebeta 4 from 23. January 2008

EAC extraction logfile from 26. May 2009, 5:59

Space Buddha / Jungle of Whishes

Used drive : Optiarc DVD RW AD-7170S Adapter: 0 ID: 1

Read mode : Secure
Utilize accurate stream : Yes
Defeat audio cache : Yes
Make use of C2 pointers : No

Read offset correction : 48
Overread into Lead-In and Lead-Out : Yes
Fill up missing offset samples with silence : Yes
Delete leading and trailing silent blocks : No
Null samples used in CRC calculations : Yes
Used interface : Installed external ASPI interface
Gap handling : Appended to previous track

Used output format : User Defined Encoder
Selected bitrate : 128 kBit/s
Quality : High
Add ID3 tag : No
Command line compressor : C:\Program Files\Exact Audio Copy\FLAC\FLAC.EXE
Additional command line options : -V -8 -T "artist=%a" -T "title=%t" -T "album=%g" -T "date=%y" -T "tracknumber=%n" -T "genre=%m" %s


TOC of the extracted CD

Track | Start | Length | Start sector | End sector
---------------------------------------------------------
1 | 0:00.00 | 6:40.46 | 0 | 30045
2 | 6:40.46 | 6:47.23 | 30046 | 60593
3 | 13:27.69 | 6:44.41 | 60594 | 90934
4 | 20:12.35 | 7:09.01 | 90935 | 123110
5 | 27:21.36 | 8:01.17 | 123111 | 159202
6 | 35:22.53 | 7:50.13 | 159203 | 194465
7 | 43:12.66 | 7:19.57 | 194466 | 227447
8 | 50:32.48 | 7:40.22 | 227448 | 261969


Track 1

Filename D:\EAC Rips\Space Buddha - 2002 - Jungle of Whishes\01 - In Denail.wav

Pre-gap length 0:00:02.00

Peak level 95.5 %
Track quality 100.0 %
Test CRC C0853491
Copy CRC C0853491
Track not present in AccurateRip database
Copy OK

Track 2

Filename D:\EAC Rips\Space Buddha - 2002 - Jungle of Whishes\02 - Liquid Sky.wav

Pre-gap length 0:00:01.98

Peak level 98.9 %
Track quality 100.0 %
Test CRC 82D1D36D
Copy CRC 95DB6084
Track not present in AccurateRip database
Copy OK

Track 3

Filename D:\EAC Rips\Space Buddha - 2002 - Jungle of Whishes\03 - Overfly Zone.wav

Pre-gap length 0:00:02.00

Peak level 98.8 %
Track quality 100.0 %
Test CRC B749E6FD
Copy CRC B749E6FD
Track not present in AccurateRip database
Copy OK

Track 4

Filename D:\EAC Rips\Space Buddha - 2002 - Jungle of Whishes\04 - Jungle of Whishes.wav

Pre-gap length 0:00:01.98

Peak level 100.0 %
Track quality 99.9 %
Test CRC 710826F7
Copy CRC 710826F7
Track not present in AccurateRip database
Copy OK

Track 5

Filename D:\EAC Rips\Space Buddha - 2002 - Jungle of Whishes\05 - Macrocosm.wav

Pre-gap length 0:00:01.98

Peak level 77.7 %
Track quality 100.0 %
Test CRC B37277A1
Copy CRC B37277A1
Track not present in AccurateRip database
Copy OK

Track 6

Filename D:\EAC Rips\Space Buddha - 2002 - Jungle of Whishes\06 - Paranormal Input.wav

Pre-gap length 0:00:01.98

Peak level 92.3 %
Track quality 99.9 %
Test CRC BA54B1AA
Copy CRC BA54B1AA
Track not present in AccurateRip database
Copy OK

Track 7

Filename D:\EAC Rips\Space Buddha - 2002 - Jungle of Whishes\07 - I Think Therefor I Am.wav

Pre-gap length 0:00:01.98

Peak level 100.0 %
Track quality 100.0 %
Test CRC A4789D09
Copy CRC A4789D09
Track not present in AccurateRip database
Copy OK

Track 8

Filename D:\EAC Rips\Space Buddha - 2002 - Jungle of Whishes\08 - Elevation.wav

Pre-gap length 0:00:01.98

Peak level 96.2 %
Track quality 100.0 %
Test CRC 0F8AC73E
Copy CRC 0F8AC73E
Track not present in AccurateRip database
Copy OK


None of the tracks are present in the AccurateRip database

No errors occurred

End of status report

------------------------------------------------------------

Exact Audio Copy V0.99 prebeta 4 from 23. January 2008

EAC extraction logfile from 26. May 2009, 15:51

Space Buddha / Jungle of Whishes

Used drive : Optiarc DVD RW AD-7170S Adapter: 0 ID: 1

Read mode : Secure
Utilize accurate stream : Yes
Defeat audio cache : Yes
Make use of C2 pointers : No

Read offset correction : 48
Overread into Lead-In and Lead-Out : Yes
Fill up missing offset samples with silence : Yes
Delete leading and trailing silent blocks : No
Null samples used in CRC calculations : Yes
Used interface : Installed external ASPI interface
Gap handling : Appended to previous track

Used output format : User Defined Encoder
Selected bitrate : 128 kBit/s
Quality : High
Add ID3 tag : No
Command line compressor : C:\Program Files\Exact Audio Copy\FLAC\FLAC.EXE
Additional command line options : -V -8 -T "artist=%a" -T "title=%t" -T "album=%g" -T "date=%y" -T "tracknumber=%n" -T "genre=%m" %s


TOC of the extracted CD

Track | Start | Length | Start sector | End sector
---------------------------------------------------------
1 | 0:00.00 | 6:40.46 | 0 | 30045
2 | 6:40.46 | 6:47.23 | 30046 | 60593
3 | 13:27.69 | 6:44.41 | 60594 | 90934
4 | 20:12.35 | 7:09.01 | 90935 | 123110
5 | 27:21.36 | 8:01.17 | 123111 | 159202
6 | 35:22.53 | 7:50.13 | 159203 | 194465
7 | 43:12.66 | 7:19.57 | 194466 | 227447
8 | 50:32.48 | 7:40.22 | 227448 | 261969


Track 2

Filename D:\EAC Rips\Space Buddha - 2002 - Jungle of Whishes\02 - Liquid Sky.wav

Pre-gap length 0:00:01.98

Peak level 98.9 %
Track quality 100.0 %
Test CRC 95DB6084
Copy CRC 95DB6084
Track not present in AccurateRip database
Copy OK


None of the tracks are present in the AccurateRip database

No errors occurred

End of status report

------------------------------------------------------------

Exact Audio Copy V0.99 prebeta 4 from 23. January 2008

EAC extraction logfile from 26. May 2009, 15:52

Space Buddha / Jungle of Whishes

Used drive : Optiarc DVD RW AD-7170S Adapter: 0 ID: 1

Read mode : Secure
Utilize accurate stream : Yes
Defeat audio cache : Yes
Make use of C2 pointers : No

Read offset correction : 48
Overread into Lead-In and Lead-Out : Yes
Fill up missing offset samples with silence : Yes
Delete leading and trailing silent blocks : No
Null samples used in CRC calculations : Yes
Used interface : Installed external ASPI interface
Gap handling : Appended to previous track

Used output format : User Defined Encoder
Selected bitrate : 128 kBit/s
Quality : High
Add ID3 tag : No
Command line compressor : C:\Program Files\Exact Audio Copy\FLAC\FLAC.EXE
Additional command line options : -V -8 -T "artist=%a" -T "title=%t" -T "album=%g" -T "date=%y" -T "tracknumber=%n" -T "genre=%m" %s


TOC of the extracted CD

Track | Start | Length | Start sector | End sector
---------------------------------------------------------
1 | 0:00.00 | 6:40.46 | 0 | 30045
2 | 6:40.46 | 6:47.23 | 30046 | 60593
3 | 13:27.69 | 6:44.41 | 60594 | 90934
4 | 20:12.35 | 7:09.01 | 90935 | 123110
5 | 27:21.36 | 8:01.17 | 123111 | 159202
6 | 35:22.53 | 7:50.13 | 159203 | 194465
7 | 43:12.66 | 7:19.57 | 194466 | 227447
8 | 50:32.48 | 7:40.22 | 227448 | 261969


Track 2

Filename D:\EAC Rips\Space Buddha - 2002 - Jungle of Whishes\02 - Liquid Sky.wav

Pre-gap length 0:00:01.98

Peak level 98.9 %
Track quality 100.0 %
Test CRC 95DB6084
Copy CRC 95DB6084
Track not present in AccurateRip database
Copy OK


None of the tracks are present in the AccurateRip database

No errors occurred

End of status report
[свернуть]

Файл CUE

REM GENRE Goa / Psychedelic
REM DATE 2002
PERFORMER "Space Buddha"
TITLE "Jungle Of Whishes"
REM DISCID 560DA408
FILE "01 - In Denail.flac" WAVE
TRACK 01 AUDIO
TITLE "In Denail"
PERFORMER "Space Buddha"
INDEX 01 00:00:00
FILE "02 - Liquid Sky.flac" WAVE
TRACK 02 AUDIO
TITLE "Liquid Sky"
PERFORMER "Space Buddha"
INDEX 01 00:00:00
FILE "03 - Overfly Zone.flac" WAVE
TRACK 03 AUDIO
TITLE "Overfly Zone"
PERFORMER "Space Buddha"
INDEX 01 00:00:00
FILE "04 - Jungle Of Whishes.flac" WAVE
TRACK 04 AUDIO
TITLE "Jungle Of Whishes"
PERFORMER "Space Buddha"
INDEX 01 00:00:00
FILE "05 - Macrocosm.flac" WAVE
TRACK 05 AUDIO
TITLE "Macrocosm"
PERFORMER "Space Buddha"
INDEX 01 00:00:00
FILE "06 - Paranormal Input.flac" WAVE
TRACK 06 AUDIO
TITLE "Paranormal Input"
PERFORMER "Space Buddha"
INDEX 01 00:00:00
FILE "07 - I Think Therefor I Am.flac" WAVE
TRACK 07 AUDIO
TITLE "I Think Therefor I Am"
PERFORMER "Space Buddha"
INDEX 01 00:00:00
FILE "08 - Elevation.flac" WAVE
TRACK 08 AUDIO
TITLE "Elevation"
PERFORMER "Space Buddha"
INDEX 01 00:00:00
[свернуть]

Скачать Space Buddha ‎– Jungle Of Whishes

[свернуть]
My opinion of release: 10/10

Release info RInfo

Отличный альбом! Один из любимых у Space Buddha.

Лично для меня, Space Buddha - это образец жанра Goa Trance.
Красивые мелодии, без жёстко-затяжного психодела, а мелодичный psy. Гармоничное сплетение.

P.S. Внимание! В архиве 2 CUE файла:
- нерабочий, оригинальный
- рабочий, неоригинальный

Для всей выложенной мною дискографии Space Buddha были приведены в порядок теги, имена файлов, .cue (+ созданы при отсутствии таковых (без учёта длительности композиций))


Последний раз редактировалось TAIFUN, 31.05.2014 в 03:47.
Вверх
3 пользователя(ей) сказали cпасибо:
Показать список поблагодаривших
  #2
Старый 15.09.2018, 18:00
Zarohoff
Меломан
Досье
 
Аватар для Zarohoff
По умолчанию Re: Space Buddha ‎– Jungle Of Whishes

Спасибо!

Вверх
Похожие темы
Тема Автор Раздел Ответов Последнее сообщение
Альбом Space Buddha - Stigmata TAIFUN GOA 1 15.09.2018 18:00
Альбом Space Buddha - Eternity Project TAIFUN GOA 0 30.05.2014 03:51
Альбом Space Buddha - Space Buddha TAIFUN GOA 0 30.05.2014 03:32
Релиз Abinchova – Versteckte Pfade‎ PUPOKIN Death Metal 0 10.04.2011 09:02
Релиз Nonpoint – Icon‎ PUPOKIN Metal 0 09.04.2011 09:33


Метки
2002 , goa trance , jungle of whishes , space buddha

Опции темы

Ваши права в разделе
Вы не можете создавать новые темы
Вы не можете отвечать в темах
Вы не можете прикреплять вложения
Вы не можете редактировать свои сообщения

Быстрый переход



Текущее время: 07:33. Часовой пояс GMT +3.
Powered by vBulletin® Version 3.8.10
Copyright ©2000 - 2018, vBulletin Solutions, Inc. Перевод: zCarot
© 2008 - 2018 Taifun With Song
Яндекс.Метрика