TAIFUN With Song
Навигация
Вернуться   TAIFUN With Song > Music (обменник) > Rock > Progressive Rock
Расширенный поиск
Progressive Rock Единственной универсальной характеристикой прогрессивного рока является усложнение музыкальной формы. Это проявляется в удлиннении и усложнении музыкальных пьес, тяготении к циклическим формам академической музыки; расширении репертуара используемых тембров, усложнении метра и ритма, использовании нетрадиционных для рока мелодических и гармонических решений; поэзии, уходящей от тем развлекательной музыки и тяготеющей к философским «вечным темам», фантастической и фентезийной тематике; переплетении с классической и современной академической музыкой, джазом.

А знаете ли Вы, что...
Какое музыкальное произведение планируется закончить исполнять к 2640 году?
«Среди произведений Джона Кейджа есть пьеса «Organ²/ASLSP (As SLow aS Possible)». Её типичное исполнение на фортепиано занимает от 20 до 70 минут, однако пояснение в скобках даёт указание играть пьесу настолько медленно, насколько это возможно. В связи с этим в 2001 году в церкви немецкого города Хальберштадт началось уникальное исполнение этой пьесы на органе, которое планируется завершить в 2640 году (через 639 лет после начала), а смена аккорда проходит примерно раз в год.»
 
Опции темы

  #1
Старый 27.09.2015, 09:31
sergych
Координатор
Досье
 
Аватар для sergych
Релиз Various Artists - The Everlasting Songs {A Tribute To Pink Floyd}


2015 - Various Artists - The Everlasting Songs {A Tribute To Pink Floyd}




Исполнитель/Artist: Various Artists
Альбом/Album: The Everlasting Songs {A Tribute To Pink Floyd}
Год/Year: 2015
Жанр/Genre: Rock, progressive rock
Страна/Country: Германия
Рекорд-лейбл/Record label: Collectors Dream Records
Номер в каталоге/Catalogue #: CDR DP0021
Формат/Format: Free Lossless Audio Codec (*.flac)
Качество/Quality: Lossless
Тип рипа/RIP Type: image+.cue
Продолжительность/Length: 00:59:50
Источник/Source: Собственный рип
Размер/Size: 449.6 MB

Сканы в комплекте

Треклист

01. Tommy Shaw (Styx) & Steve Lukather (Toto) / Hey You [0:04:44.19]
02. Adrian Belew (King Crimson) & Alan White (Yes) / Speak To Me/Breathe [0:05:35.36]
03. Steve Lukather (Toto) / Shine On You Crazy Diamond [0:06:51.47]
04. Steve Morse (Deep Purple) / Another Brick In The Wall (Band Version) [0:04:02.41]
05. Gary Green (Gentle Giant) & Robbie Krieger (The Doors) / Time [0:07:00.68]
06. Robben Ford, Steve Porcaro (Toto) & Aynsley Dunbar (Journey) / Any Colour You Like [0:04:14.28]
07. Adrian Belew (King Crimson) & Keith Emerson (ELP) / In The Flesh? [0:03:05.45]
08. Bill Bruford (Yes, King Crimson), Tony Levin (King Crimson), Edgar Winter / Money [0:06:24.58]
09. Derek Sherinian (Dream Theater) / Welcome To The Machine [0:07:52.24]
10. Bobby Kimball (Toto) / Have A Cigar [0:05:18.25]
11. Rick Wakeman (Yes), Steve Howe (Yes) / The Great Gig In The Sky [0:04:39.32]
[свернуть]

youtube.com

[свернуть]

EAC лог

Exact Audio Copy V1.0 beta 3 from 29. August 2011

EAC extraction logfile from 14. May 2015, 8:20

Various Artists / The Everlasting Songs {A Tribute To Pink Floyd}

Used drive : ATAPI iHAS124 D Adapter: 0 ID: 2

Read mode : Secure
Utilize accurate stream : Yes
Defeat audio cache : Yes
Make use of C2 pointers : No

Read offset correction : 6
Overread into Lead-In and Lead-Out : No
Fill up missing offset samples with silence : Yes
Delete leading and trailing silent blocks : No
Null samples used in CRC calculations : Yes
Used interface : Installed external ASPI interface

Used output format : User Defined Encoder
Selected bitrate : 1024 kBit/s
Quality : High
Add ID3 tag : No
Command line compressor : C:\Program Files (x86)\Exact Audio Copy\Flac\flac.exe
Additional command line options : -6 -V -T "ARTIST=%artist%" -T "TITLE=%title%" -T "ALBUM=%albumtitle%" -T "DATE=%year%" -T "TRACKNUMBER=%tracknr%" -T "GENRE=%genre%" -T "COMMENT=%comment%" -T "BAND=%albuminterpret%" -T "COMPOSER=%composer%" %haslyrics%--tag-from-file=LYRICS="%lyricsfile%"%haslyrics% -T "DISCNUMBER=%cdnumber%" -T "TOTALDISCS=%totalcds%" -T "TOTALTRACKS=%numtracks%" %hascover%--picture="%coverfile%"%hascover% %source% -o %dest%


TOC of the extracted CD

Track | Start | Length | Start sector | End sector
---------------------------------------------------------
1 | 0:00.00 | 4:44.19 | 0 | 21318
2 | 4:44.19 | 5:35.36 | 21319 | 46479
3 | 10:19.55 | 6:51.47 | 46480 | 77351
4 | 17:11.27 | 4:02.41 | 77352 | 95542
5 | 21:13.68 | 7:00.68 | 95543 | 127110
6 | 28:14.61 | 4:14.28 | 127111 | 146188
7 | 32:29.14 | 3:05.45 | 146189 | 160108
8 | 35:34.59 | 6:24.58 | 160109 | 188966
9 | 41:59.42 | 7:52.24 | 188967 | 224390
10 | 49:51.66 | 5:18.25 | 224391 | 248265
11 | 55:10.16 | 4:39.32 | 248266 | 269222


Range status and errors

Selected range

Filename C:\mm\Pink Floyd\VA\The Everlasting Songs {An All Star Tribute To Pink Floyd} [CDR DP0021]\Various Artists - The Everlasting Songs {A Tribute To Pink Floyd}.wav

Peak level 100.0 %
Extraction speed 9.8 X
Range quality 100.0 %
Test CRC 070D92FB
Copy CRC 070D92FB
Copy OK

No errors occurred


AccurateRip summary

Track 1 cannot be verified as accurate (confidence 3) [E94D9209], AccurateRip returned [65BDFCDC] (AR v2)
Track 2 cannot be verified as accurate (confidence 3) [247FE399], AccurateRip returned [08C73032] (AR v2)
Track 3 cannot be verified as accurate (confidence 3) [3DF2311E], AccurateRip returned [7AD3059B] (AR v2)
Track 4 cannot be verified as accurate (confidence 3) [4335D527], AccurateRip returned [854DB30F] (AR v2)
Track 5 cannot be verified as accurate (confidence 3) [65B96693], AccurateRip returned [BB48D5A3] (AR v2)
Track 6 cannot be verified as accurate (confidence 3) [EC2DC35B], AccurateRip returned [C2171E6F] (AR v2)
Track 7 cannot be verified as accurate (confidence 3) [02DA0785], AccurateRip returned [4B6AA969] (AR v2)
Track 8 cannot be verified as accurate (confidence 3) [6B149C15], AccurateRip returned [F41D31C5] (AR v2)
Track 9 cannot be verified as accurate (confidence 3) [C8E916E5], AccurateRip returned [6F4E2181] (AR v2)
Track 10 cannot be verified as accurate (confidence 3) [C92375FA], AccurateRip returned [B422A33B] (AR v2)
Track 11 cannot be verified as accurate (confidence 3) [34CC1FCE], AccurateRip returned [47CBBD63] (AR v2)

No tracks could be verified as accurate
You may have a different pressing from the one(s) in the database

End of status report
[свернуть]

Файл CUE

REM GENRE "Progressive Rock"
REM DATE 2015
REM DISCID 8D0E050B
REM COMMENT "ExactAudioCopy v1.0b3"
PERFORMER "Various Artists"
TITLE "The Everlasting Songs {A Tribute To Pink Floyd}"
FILE "Various Artists - The Everlasting Songs {A Tribute To Pink Floyd}.flac" WAVE
TRACK 01 AUDIO
TITLE "Hey You"
PERFORMER "Tommy Shaw (Styx) & Steve Lukather (Toto)"
FLAGS DCP
INDEX 01 00:00:00
TRACK 02 AUDIO
TITLE "Speak To Me _ Breathe"
PERFORMER "Adrian Belew (King Crimson) & Alan White (Yes)"
FLAGS DCP
INDEX 01 04:44:19
TRACK 03 AUDIO
TITLE "Shine On You Crazy Diamond"
PERFORMER "Steve Lukather (Toto)"
FLAGS DCP
INDEX 01 10:19:55
TRACK 04 AUDIO
TITLE "Another Brick In The Wall (Band Version)"
PERFORMER "Steve Morse (Deep Purple)"
FLAGS DCP
INDEX 01 17:11:27
TRACK 05 AUDIO
TITLE "Time"
PERFORMER "Gary Green (Gentle Giant) & Robbie Krieger (The Doors)"
FLAGS DCP
INDEX 01 21:13:68
TRACK 06 AUDIO
TITLE "Any Colour You Like"
PERFORMER "Robben Ford, Steve Porcaro (Toto) & Aynsley Dunbar (Journey)"
FLAGS DCP
INDEX 01 28:14:61
TRACK 07 AUDIO
TITLE "In The Flesh?"
PERFORMER "Adrian Belew (King Crimson) & Keith Emerson (ELP)"
FLAGS DCP
INDEX 01 32:29:14
TRACK 08 AUDIO
TITLE "Money"
PERFORMER "Bill Bruford (Yes, King Crimson), Tony Levin (King Crimson), Edgar Winter"
FLAGS DCP
INDEX 01 35:34:59
TRACK 09 AUDIO
TITLE "Welcome To The Machine"
PERFORMER "Derek Sherinian (Dream Theater)"
FLAGS DCP
INDEX 01 41:59:42
TRACK 10 AUDIO
TITLE "Have A Cigar"
PERFORMER "Bobby Kimball (Toto)"
FLAGS DCP
INDEX 01 49:51:66
TRACK 11 AUDIO
TITLE "The Great Gig In The Sky"
PERFORMER "Rick Wakeman (Yes), Steve Howe (Yes)"
FLAGS DCP
INDEX 01 55:10:16
[свернуть]

Лог проверки качества

AUDIOCHECKER v2.0 beta (build 457) - by Dester -
~~~~~~~~~~~~~~~~~~~~~~~~~~~~~~~~~~
-=== НЕ РЕДАКТИРУЙТЕ ЭТОТ ФАЙЛ! ===-

Путь: ...\The Everlasting Songs {An All Star Tribute To Pink Floyd} [CDR DP0021]

1 -=- Various Artists - The Everlasting Songs {A Tribute To Pink Floyd}.flac -=- CDDA (100%)

129542740
[свернуть]

Спектр частот

[свернуть]

Скачать Various Artists - The Everlasting Songs {A Tribute To Pink Floyd}



password: sergych
[свернуть]
My opinion of release: 10/10

Release info RInfo

С одной стороны, - все представленные композиции уже фигурировали в разных сочетания в тех или иных трибьютах. С другой, - данный сборник, имхо, собрал воедино лучшее.
Имена участников впечатляют. Монстры рока отдали свою дань уважения легендарной группе.
__________________
TAIFUN.Wings of Soul

Вверх
2 пользователя(ей) сказали cпасибо:
TAIFUN (27.09.2015), VladislavUdalov (24.11.2017)
Похожие темы
Тема Автор Раздел Ответов Последнее сообщение
Сборник Various Artists - Top Musicians Play Pink Floyd sergych Progressive Rock 0 12.10.2014 18:19
VA VA - The Other Side of Pink. A Tribute To Pink Floyd sergych Psychedelic Rock 1 30.06.2014 12:00
VA A Special Tribute To Pink Floyd sergych Psychedelic Rock 0 06.12.2008 18:28
VA Pink Floyd Tribute Band - A Chill Out Tribute To Pink Floyd sergych Chill Out 0 06.12.2008 17:23
Сборник Pink Floyd - A Collection Of Great Dance Songs sergych Psychedelic Rock 0 02.05.2008 13:49


Метки
2015 , pink floyd , progressive rock , rock , the everlasting songs {a tribute to pink floyd} , various artists

Опции темы

Ваши права в разделе
Вы не можете создавать новые темы
Вы не можете отвечать в темах
Вы не можете прикреплять вложения
Вы не можете редактировать свои сообщения

Быстрый переход



Текущее время: 23:36. Часовой пояс GMT +3.
Powered by vBulletin® Version 3.8.10
Copyright ©2000 - 2018, vBulletin Solutions, Inc. Перевод: zCarot
© 2008 - 2018 Taifun With Song
Яндекс.Метрика