TAIFUN With Song
Навигация
Вернуться   TAIFUN With Song > Music (обменник) > Rock > Progressive Rock
Расширенный поиск
Progressive Rock Единственной универсальной характеристикой прогрессивного рока является усложнение музыкальной формы. Это проявляется в удлиннении и усложнении музыкальных пьес, тяготении к циклическим формам академической музыки; расширении репертуара используемых тембров, усложнении метра и ритма, использовании нетрадиционных для рока мелодических и гармонических решений; поэзии, уходящей от тем развлекательной музыки и тяготеющей к философским «вечным темам», фантастической и фентезийной тематике; переплетении с классической и современной академической музыкой, джазом.

А знаете ли Вы, что...
Кто написал песню «Во поле берёза стояла»?
«Многие источники утверждают, что песню «Во поле берёза стояла» написал татарский поэт Нигмат Ибрагимов. Однако эта песня всё-таки является русской народной.»
 
Опции темы

  #1
Старый 12.10.2014, 18:19
sergych
Координатор
Досье
 
Аватар для sergych
Релиз Various Artists - Top Musicians Play Pink Floyd


2009 - Various Artists - Top Musicians Play Pink Floyd




Исполнитель/Artist: Various Artists
Альбом/Album: Top Musicians Play Pink Floyd
Год/Year: 2009
Жанр/Genre: Rock, progressive rock
Страна/Country: Нидерланды
Рекорд-лейбл/Record label: United Audio
Номер в каталоге/Catalogue #: PFB95192
Формат/Format: Free Lossless Audio Codec (*.flac)
Качество/Quality: Lossless
Тип рипа/RIP Type: image+.cue
Продолжительность/Length: 01:07:56
Источник/Source: Собственный рип
Размер/Size: 503.3 MB

Сканы в комплекте

Треклист

01. Hey You [0:04:45.33]
02. Comfortably Numb [0:06:53.35]
03. Money [0:06:08.07]
04. Welcome To The Machine [0:07:53.07]
05. Shine On Your Crazy Diamand [0:06:52.62]
06. Us And Them [0:06:20.25]
07. Young Lust [0:04:22.74]
08. Run Like Hell [0:05:11.05]
09. Any Color You Like [0:04:15.34]
10. Another Brick In The Wall [0:04:04.05]
11. Have A Cigar [0:05:20.00]
12. Breathe [0:04:52.30]
13. Goodbye Cruel World [0:00:57.43]
[свернуть]

youtube.com

[свернуть]

EAC лог

Exact Audio Copy V1.0 beta 3 from 29. August 2011

EAC extraction logfile from 12. October 2014, 17:51

Various Artists / Pink Floyd

Used drive : ATAPI iHAS124 D Adapter: 0 ID: 2

Read mode : Secure
Utilize accurate stream : Yes
Defeat audio cache : Yes
Make use of C2 pointers : No

Read offset correction : 6
Overread into Lead-In and Lead-Out : No
Fill up missing offset samples with silence : Yes
Delete leading and trailing silent blocks : No
Null samples used in CRC calculations : Yes
Used interface : Installed external ASPI interface

Used output format : User Defined Encoder
Selected bitrate : 1024 kBit/s
Quality : High
Add ID3 tag : No
Command line compressor : C:\Program Files (x86)\Exact Audio Copy\Flac\flac.exe
Additional command line options : -6 -V -T "ARTIST=%artist%" -T "TITLE=%title%" -T "ALBUM=%albumtitle%" -T "DATE=%year%" -T "TRACKNUMBER=%tracknr%" -T "GENRE=%genre%" -T "COMMENT=%comment%" -T "BAND=%albuminterpret%" -T "COMPOSER=%composer%" %haslyrics%--tag-from-file=LYRICS="%lyricsfile%"%haslyrics% -T "DISCNUMBER=%cdnumber%" -T "TOTALDISCS=%totalcds%" -T "TOTALTRACKS=%numtracks%" %hascover%--picture="%coverfile%"%hascover% %source% -o %dest%


TOC of the extracted CD

Track | Start | Length | Start sector | End sector
---------------------------------------------------------
1 | 0:00.00 | 4:45.33 | 0 | 21407
2 | 4:45.33 | 6:53.35 | 21408 | 52417
3 | 11:38.68 | 6:08.07 | 52418 | 80024
4 | 17:47.00 | 7:53.07 | 80025 | 115506
5 | 25:40.07 | 6:52.62 | 115507 | 146468
6 | 32:32.69 | 6:20.25 | 146469 | 174993
7 | 38:53.19 | 4:22.74 | 174994 | 194717
8 | 43:16.18 | 5:11.05 | 194718 | 218047
9 | 48:27.23 | 4:15.34 | 218048 | 237206
10 | 52:42.57 | 4:04.05 | 237207 | 255511
11 | 56:46.62 | 5:20.00 | 255512 | 279511
12 | 62:06.62 | 4:52.30 | 279512 | 301441
13 | 66:59.17 | 0:57.43 | 301442 | 305759


Range status and errors

Selected range

Filename D:\MultiMedia\Mp3\_Redo\_ENG\Pink Floyd\_Va\2009 - Top Musicians Play Pink Floyd [PFB95192]\Various Artists - Pink Floyd.wav

Peak level 98.8 %
Extraction speed 9.1 X
Range quality 100.0 %
Test CRC 24CA0317
Copy CRC 24CA0317
Copy OK

No errors occurred


AccurateRip summary

Track 1 accurately ripped (confidence 4) [15B2E58A] (AR v1)
Track 2 accurately ripped (confidence 4) [BC39440C] (AR v1)
Track 3 accurately ripped (confidence 4) [B351F41B] (AR v1)
Track 4 accurately ripped (confidence 4) [DFDFFCA0] (AR v1)
Track 5 accurately ripped (confidence 4) [826D9976] (AR v1)
Track 6 accurately ripped (confidence 4) [2ACBB207] (AR v1)
Track 7 accurately ripped (confidence 4) [E14ED8A3] (AR v1)
Track 8 accurately ripped (confidence 4) [F42203E7] (AR v1)
Track 9 accurately ripped (confidence 4) [84F74B92] (AR v1)
Track 10 accurately ripped (confidence 4) [BE9F6E6C] (AR v1)
Track 11 accurately ripped (confidence 4) [D82945AD] (AR v1)
Track 12 accurately ripped (confidence 4) [57D11D66] (AR v1)
Track 13 accurately ripped (confidence 4) [FEC8DD82] (AR v1)

All tracks accurately ripped

End of status report
[свернуть]

Файл CUE

REM GENRE "Progressive Rock"
REM DATE 2009
REM DISCID BA0FEC0D
REM COMMENT "ExactAudioCopy v1.0b3"
PERFORMER "Various Artists"
TITLE "Pink Floyd"
FILE "Various Artists - Pink Floyd.flac" WAVE
TRACK 01 AUDIO
TITLE "Hey You"
PERFORMER "Various Artists"
INDEX 01 00:00:00
TRACK 02 AUDIO
TITLE "Comfortably Numb"
PERFORMER "Various Artists"
INDEX 00 04:43:33
INDEX 01 04:45:33
TRACK 03 AUDIO
TITLE "Money"
PERFORMER "Various Artists"
INDEX 00 11:36:68
INDEX 01 11:38:68
TRACK 04 AUDIO
TITLE "Welcome To The Machine"
PERFORMER "Various Artists"
INDEX 00 17:45:00
INDEX 01 17:47:00
TRACK 05 AUDIO
TITLE "Shine On Your Crazy Diamand"
PERFORMER "Various Artists"
INDEX 00 25:38:07
INDEX 01 25:40:07
TRACK 06 AUDIO
TITLE "Us And Them"
PERFORMER "Various Artists"
INDEX 00 32:30:69
INDEX 01 32:32:69
TRACK 07 AUDIO
TITLE "Young Lust"
PERFORMER "Various Artists"
INDEX 00 38:51:19
INDEX 01 38:53:19
TRACK 08 AUDIO
TITLE "Run Like Hell"
PERFORMER "Various Artists"
INDEX 00 43:14:18
INDEX 01 43:16:18
TRACK 09 AUDIO
TITLE "Any Color You Like"
PERFORMER "Various Artists"
INDEX 00 48:25:23
INDEX 01 48:27:23
TRACK 10 AUDIO
TITLE "Another Brick In The Wall"
PERFORMER "Various Artists"
INDEX 00 52:40:57
INDEX 01 52:42:57
TRACK 11 AUDIO
TITLE "Have A Cigar"
PERFORMER "Various Artists"
INDEX 00 56:44:62
INDEX 01 56:46:62
TRACK 12 AUDIO
TITLE "Breathe"
PERFORMER "Various Artists"
INDEX 00 62:04:62
INDEX 01 62:06:62
TRACK 13 AUDIO
TITLE "Goodbye Cruel World"
PERFORMER "Various Artists"
INDEX 00 66:57:17
INDEX 01 66:59:17
[свернуть]

Лог проверки качества

AUDIOCHECKER v2.0 beta (build 457) - by Dester -
~~~~~~~~~~~~~~~~~~~~~~~~~~~~~~~~~~
-=== НЕ РЕДАКТИРУЙТЕ ЭТОТ ФАЙЛ! ===-

Путь: ...\2009 - Top Musicians Play Pink Floyd [PFB95192]

1 -=- Various Artists - Pink Floyd.flac -=- CDDA (100%)

16970148
[свернуть]

Спектр частот

[свернуть]

Скачать Various Artists - Top Musicians Play Pink Floyd



password: sergych
[свернуть]
My opinion of release: 10/10

Release info RInfo

Неплохой трибьют. Мне понравился
__________________
TAIFUN.Wings of Soul

Вверх
2 пользователя(ей) сказали cпасибо:
Bumbum (13.10.2014), TAIFUN (12.10.2014)
Похожие темы
Тема Автор Раздел Ответов Последнее сообщение
VA VA - The Other Side of Pink. A Tribute To Pink Floyd sergych Psychedelic Rock 1 30.06.2014 12:00
Сборник Pink Floyd - Echoes. The Best of Pink Floyd sergych Psychedelic Rock 0 17.03.2013 10:54
Альбом Pink Cream 69 - Games People Play PUPOKIN Hard Rock 0 01.07.2010 09:16
VA Pink Floyd Tribute Band - A Chill Out Tribute To Pink Floyd sergych Chill Out 0 06.12.2008 17:23
Live Pink Floyd - KQED "An Hour With Pink Floyd" sergych Psychedelic Rock 0 05.10.2008 09:46


Метки
2009 , pink floyd , progressive rock , rock , top musicians play pink floyd , various artists

Опции темы

Ваши права в разделе
Вы не можете создавать новые темы
Вы не можете отвечать в темах
Вы не можете прикреплять вложения
Вы не можете редактировать свои сообщения

Быстрый переход



Текущее время: 13:59. Часовой пояс GMT +3.
Powered by vBulletin® Version 3.8.10
Copyright ©2000 - 2018, vBulletin Solutions, Inc. Перевод: zCarot
© 2008 - 2018 Taifun With Song
Яндекс.Метрика