TAIFUN With Song
Навигация
Jazz и Blues Гибкая ритмика, импровизационное начало, гармонии и мелодии - все это Jazz. Blues - жизнеутверждающая музыка, рожденная из душевной боли

А знаете ли Вы, что...
Обозначение мегабита и мегабайта!
«MB - это Мегабайт, а Mb - это Мегабит!»
 
Опции темы

  #1
Старый 16.10.2013, 19:16
sergych
Координатор
Досье
 
Аватар для sergych
Релиз John Pizzarelli - Bossa Nova


2004 - John Pizzarelli - Bossa Nova




Исполнитель/Artist: John Pizzarelli
Альбом/Album: Bossa Nova
Год/Year: 2004
Жанр/Genre: jazz, vocal jazz, swing, smooth jazz, bossa nova
Страна/Country: Соединённые Штаты
Рекорд-лейбл/Record label: TELARC
Номер в каталоге/Catalogue #: CD-83591
Формат/Format: Free Lossless Audio Codec (*.flac)
Качество/Quality: Lossless
Тип рипа/RIP Type: tracks+.cue
Продолжительность/Length: 00:53:55
Источник/Source: Собственный рип
Размер/Size: 346.6 MB

Сканы в комплекте

Треклист

01 - One Note Samba (Jobim)
02 - Fascinatin' Rhythm (Gershwin, Gershwin)
03 - The Girl From Ipanema (DeMoraes, Gimbel, Jobim)
04 - Your Smiling Face (Taylor)
05 - Estate (Brighetti, Martino)
06 - Desafinado (Off Key) (Jobim, Lees, Mendonca)
07 - Aquelas Coisas Todas (All Those Things) (Horta)
08 - I Remember (Sondheim)
09 - Francesca (Pizzarelli)
10 - Love Dance (Lins, Williams)
11 - So Danco Samba (DeMoraes, Jobim)
12 - Aguas De Marco (Waters Of March) (Jobim)
13 - Soares Samba (Pizzarelli)
[свернуть]

youtube.com

[свернуть]

Исполнители/Performers

John Pizzarelli – vocals, guitar
Ray Kennedy – piano
Martin Pizzarelli – double-bass
Harry Allen – tenor saxophone
Paulinho Braga – drums
Jim Saporito – percussion
Cesar Camargo Mariano - piano ("So Danco Samba", "Aquelas Coisas Todas")
Daniel Jobim - background vocals, Portuguese vocal on "The Girl From Ipanema"
Chiara Civello - background vocals
String Quartet
Flute Quartet
[свернуть]

EAC лог

Exact Audio Copy V1.0 beta 3 from 29. August 2011

EAC extraction logfile from 16. October 2013, 20:19

John Pizzarelli / Bossa Nova

Used drive : ATAPI iHAS124 D Adapter: 0 ID: 2

Read mode : Secure
Utilize accurate stream : Yes
Defeat audio cache : Yes
Make use of C2 pointers : No

Read offset correction : 6
Overread into Lead-In and Lead-Out : No
Fill up missing offset samples with silence : Yes
Delete leading and trailing silent blocks : No
Null samples used in CRC calculations : Yes
Used interface : Installed external ASPI interface
Gap handling : Appended to previous track

Used output format : User Defined Encoder
Selected bitrate : 1024 kBit/s
Quality : High
Add ID3 tag : No
Command line compressor : C:\Program Files (x86)\Exact Audio Copy\Flac\flac.exe
Additional command line options : -6 -V -T "ARTIST=%artist%" -T "TITLE=%title%" -T "ALBUM=%albumtitle%" -T "DATE=%year%" -T "TRACKNUMBER=%tracknr%" -T "GENRE=%genre%" -T "COMMENT=%comment%" -T "BAND=%albuminterpret%" -T "COMPOSER=%composer%" %haslyrics%--tag-from-file=LYRICS="%lyricsfile%"%haslyrics% -T "DISCNUMBER=%cdnumber%" -T "TOTALDISCS=%totalcds%" -T "TOTALTRACKS=%numtracks%" %hascover%--picture="%coverfile%"%hascover% %source% -o %dest%


TOC of the extracted CD

Track | Start | Length | Start sector | End sector
---------------------------------------------------------
1 | 0:00.00 | 4:42.45 | 0 | 21194
2 | 4:42.45 | 3:53.07 | 21195 | 38676
3 | 8:35.52 | 4:55.48 | 38677 | 60849
4 | 13:31.25 | 2:57.35 | 60850 | 74159
5 | 16:28.60 | 4:58.14 | 74160 | 96523
6 | 21:26.74 | 2:35.68 | 96524 | 108216
7 | 24:02.67 | 5:28.40 | 108217 | 132856
8 | 29:31.32 | 3:45.64 | 132857 | 149795
9 | 33:17.21 | 4:32.38 | 149796 | 170233
10 | 37:49.59 | 3:39.60 | 170234 | 186718
11 | 41:29.44 | 3:29.10 | 186719 | 202403
12 | 44:58.54 | 3:59.58 | 202404 | 220386
13 | 48:58.37 | 4:56.68 | 220387 | 242654


Track 1

Filename C:\mm\John Pizzarelli\2004 - Bossa Nova\01 - One Note Samba.wav

Pre-gap length 0:00:02.00

Peak level 99.9 %
Extraction speed 5.4 X
Track quality 100.0 %
Test CRC DF6A69D8
Copy CRC DF6A69D8
Accurately ripped (confidence 2) [12A045CE] (AR v1)
Copy OK

Track 2

Filename C:\mm\John Pizzarelli\2004 - Bossa Nova\02 - Fascinatin' Rhythm.wav

Peak level 100.0 %
Extraction speed 5.9 X
Track quality 100.0 %
Test CRC 7E7A3307
Copy CRC 7E7A3307
Accurately ripped (confidence 2) [A4423AAB] (AR v1)
Copy OK

Track 3

Filename C:\mm\John Pizzarelli\2004 - Bossa Nova\03 - The Girl From Ipanema.wav

Peak level 63.9 %
Extraction speed 6.7 X
Track quality 100.0 %
Test CRC F36FB6A8
Copy CRC F36FB6A8
Accurately ripped (confidence 2) [53788F4B] (AR v1)
Copy OK

Track 4

Filename C:\mm\John Pizzarelli\2004 - Bossa Nova\04 - Your Smiling Face.wav

Peak level 99.9 %
Extraction speed 6.7 X
Track quality 100.0 %
Test CRC E62ED723
Copy CRC E62ED723
Accurately ripped (confidence 2) [90D30A7E] (AR v1)
Copy OK

Track 5

Filename C:\mm\John Pizzarelli\2004 - Bossa Nova\05 - Estate.wav

Peak level 86.4 %
Extraction speed 7.6 X
Track quality 100.0 %
Test CRC E3EC1BB9
Copy CRC E3EC1BB9
Accurately ripped (confidence 2) [EE36D2FE] (AR v1)
Copy OK

Track 6

Filename C:\mm\John Pizzarelli\2004 - Bossa Nova\06 - Desafinado (Off Key).wav

Peak level 42.8 %
Extraction speed 7.3 X
Track quality 100.0 %
Test CRC 40A0DC30
Copy CRC 40A0DC30
Accurately ripped (confidence 2) [CC842B71] (AR v1)
Copy OK

Track 7

Filename C:\mm\John Pizzarelli\2004 - Bossa Nova\07 - Aquelas Coisas Todas (All Those Things).wav

Peak level 100.0 %
Extraction speed 8.5 X
Track quality 100.0 %
Test CRC E60081DF
Copy CRC E60081DF
Accurately ripped (confidence 2) [104D970E] (AR v1)
Copy OK

Track 8

Filename C:\mm\John Pizzarelli\2004 - Bossa Nova\08 - I Remember.wav

Peak level 47.9 %
Extraction speed 8.6 X
Track quality 100.0 %
Test CRC 31E5F50A
Copy CRC 31E5F50A
Accurately ripped (confidence 2) [EF2DDBC1] (AR v1)
Copy OK

Track 9

Filename C:\mm\John Pizzarelli\2004 - Bossa Nova\09 - Francesca.wav

Peak level 100.0 %
Extraction speed 9.2 X
Track quality 100.0 %
Test CRC B036F21A
Copy CRC B036F21A
Accurately ripped (confidence 2) [C644901B] (AR v1)
Copy OK

Track 10

Filename C:\mm\John Pizzarelli\2004 - Bossa Nova\10 - Love Dance.wav

Peak level 39.0 %
Extraction speed 9.1 X
Track quality 100.0 %
Test CRC 3267794C
Copy CRC 3267794C
Accurately ripped (confidence 2) [64C4414A] (AR v1)
Copy OK

Track 11

Filename C:\mm\John Pizzarelli\2004 - Bossa Nova\11 - So Danco Samba.wav

Peak level 85.6 %
Extraction speed 7.8 X
Track quality 99.9 %
Test CRC 4C13EA6A
Copy CRC 4C13EA6A
Accurately ripped (confidence 2) [306A765A] (AR v1)
Copy OK

Track 12

Filename C:\mm\John Pizzarelli\2004 - Bossa Nova\12 - Aguas De Marco (Waters Of March).wav

Peak level 85.4 %
Extraction speed 9.8 X
Track quality 100.0 %
Test CRC 6E554982
Copy CRC 6E554982
Accurately ripped (confidence 2) [2CAEF61F] (AR v1)
Copy OK

Track 13

Filename C:\mm\John Pizzarelli\2004 - Bossa Nova\13 - Soares Samba.wav

Peak level 100.0 %
Extraction speed 10.5 X
Track quality 100.0 %
Test CRC 8BC47581
Copy CRC 8BC47581
Accurately ripped (confidence 2) [71DAE06B] (AR v1)
Copy OK


All tracks accurately ripped

No errors occurred

End of status report
[свернуть]

Файл CUE

REM GENRE Jazz
REM DATE 2004
REM DISCID BD0CA30D
REM COMMENT "ExactAudioCopy v1.0b3"
PERFORMER "John Pizzarelli"
TITLE "Bossa Nova"
FILE "01 - One Note Samba.wav" WAVE
TRACK 01 AUDIO
TITLE "One Note Samba"
PERFORMER "John Pizzarelli"
INDEX 01 00:00:00
FILE "02 - Fascinatin' Rhythm.wav" WAVE
TRACK 02 AUDIO
TITLE "Fascinatin' Rhythm"
PERFORMER "John Pizzarelli"
INDEX 01 00:00:00
FILE "03 - The Girl From Ipanema.wav" WAVE
TRACK 03 AUDIO
TITLE "The Girl From Ipanema"
PERFORMER "John Pizzarelli"
INDEX 01 00:00:00
FILE "04 - Your Smiling Face.wav" WAVE
TRACK 04 AUDIO
TITLE "Your Smiling Face"
PERFORMER "John Pizzarelli"
INDEX 01 00:00:00
FILE "05 - Estate.wav" WAVE
TRACK 05 AUDIO
TITLE "Estate"
PERFORMER "John Pizzarelli"
INDEX 01 00:00:00
FILE "06 - Desafinado (Off Key).wav" WAVE
TRACK 06 AUDIO
TITLE "Desafinado (Off Key)"
PERFORMER "John Pizzarelli"
INDEX 01 00:00:00
FILE "07 - Aquelas Coisas Todas (All Those Things).wav" WAVE
TRACK 07 AUDIO
TITLE "Aquelas Coisas Todas (All Those Things)"
PERFORMER "John Pizzarelli"
INDEX 01 00:00:00
FILE "08 - I Remember.wav" WAVE
TRACK 08 AUDIO
TITLE "I Remember"
PERFORMER "John Pizzarelli"
INDEX 01 00:00:00
FILE "09 - Francesca.wav" WAVE
TRACK 09 AUDIO
TITLE "Francesca"
PERFORMER "John Pizzarelli"
INDEX 01 00:00:00
FILE "10 - Love Dance.wav" WAVE
TRACK 10 AUDIO
TITLE "Love Dance"
PERFORMER "John Pizzarelli"
INDEX 01 00:00:00
FILE "11 - So Danco Samba.wav" WAVE
TRACK 11 AUDIO
TITLE "So Danco Samba"
PERFORMER "John Pizzarelli"
INDEX 01 00:00:00
FILE "12 - Aguas De Marco (Waters Of March).wav" WAVE
TRACK 12 AUDIO
TITLE "Aguas De Marco (Waters Of March)"
PERFORMER "John Pizzarelli"
INDEX 01 00:00:00
FILE "13 - Soares Samba.wav" WAVE
TRACK 13 AUDIO
TITLE "Soares Samba"
PERFORMER "John Pizzarelli"
INDEX 01 00:00:00
[свернуть]

Лог проверки качества

AUDIOCHECKER v2.0 beta (build 457) - by Dester -
~~~~~~~~~~~~~~~~~~~~~~~~~~~~~~~~~~
-=== НЕ РЕДАКТИРУЙТЕ ЭТОТ ФАЙЛ! ===-

Путь: ...\2004 - Bossa Nova

01 -=- 01 - One Note Samba.flac -=- CDDA (99%)
02 -=- 02 - Fascinatin' Rhythm.flac -=- CDDA (100%)
03 -=- 03 - The Girl From Ipanema.flac -=- CDDA (100%)
04 -=- 04 - Your Smiling Face.flac -=- CDDA (99%)
05 -=- 05 - Estate.flac -=- CDDA (100%)
06 -=- 06 - Desafinado (Off Key).flac -=- CDDA (92%)
07 -=- 07 - Aquelas Coisas Todas (All Those Things).flac -=- CDDA (100%)
08 -=- 08 - I Remember.flac -=- CDDA (62%)
09 -=- 09 - Francesca.flac -=- CDDA (99%)
10 -=- 10 - Love Dance.flac -=- CDDA (100%)
11 -=- 11 - So Danco Samba.flac -=- CDDA (100%)
12 -=- 12 - Aguas De Marco (Waters Of March).flac -=- CDDA (100%)
13 -=- 13 - Soares Samba.flac -=- CDDA (100%)

Сводка 96,23% CDDA

48347476
[свернуть]

Скачать John Pizzarelli - Bossa Nova



password: sergych
[свернуть]
My opinion of release: 10/10

Release info RInfo

Ну, что сказать? Люблю босса-нову, нравится Пиззарелли, а вместе - это превосходнейший джаз в бразильских мотивах, - знойный, томный, тягучий, иногда вспыхивающий фейерверками, а затем вновь успокаивающе-расслабляющий.
__________________
TAIFUN.Wings of Soul

Вверх
Похожие темы
Тема Автор Раздел Ответов Последнее сообщение
Сборник Various Artists - Bossa Nova U.S.A. sergych Jazz и Blues 0 06.06.2013 09:25
VA Various Artists - Bossa Nova sergych Jazz и Blues 1 12.04.2013 12:37
Сборник Oscar Peterson - Ballads, Blues & Bossa Nova sergych Jazz и Blues 0 15.12.2010 19:02
Альбом Olivia Ong - A Girl Meets Bossa Nova 2 PUPOKIN Jazz и Blues 0 31.10.2009 09:13
Альбом Pink Floyd - En Bossa Nova by Holly Wilson PUPOKIN Downtempo 0 02.01.2009 11:23


Метки
2004 , bossa nova , jazz , john pizzarelli , smooth jazz , swing , vocal jazz

Опции темы

Ваши права в разделе
Вы не можете создавать новые темы
Вы не можете отвечать в темах
Вы не можете прикреплять вложения
Вы не можете редактировать свои сообщения

Быстрый переход



Текущее время: 16:42. Часовой пояс GMT +3.
Powered by vBulletin® Version 3.8.10
Copyright ©2000 - 2018, vBulletin Solutions, Inc. Перевод: zCarot
© 2008 - 2018 Taifun With Song
Яндекс.Метрика