TAIFUN With Song
Навигация
Jazz и Blues Гибкая ритмика, импровизационное начало, гармонии и мелодии - все это Jazz. Blues - жизнеутверждающая музыка, рожденная из душевной боли

А знаете ли Вы, что...
В какую группу взяли гитариста главным образом для того, чтобы он мог покупать спиртное остальным музыкантам?
«Когда Декстер Холланд и Грег Крисел, будучи учениками выпускного класса школы, создали группу Offspring, они пригласили в неё гитариста Кевина «Нудлс» Вассермана. Тот был старше на три года, работал школьным уборщиком и уже имел опыт игры в рок-группе. Но главной причиной приглашения стало то, что Вассерман был совершеннолетним и мог покупать спиртное Холланду и Криселу.»
 
Опции темы

  #1
Старый 06.06.2013, 09:25
sergych
Координатор
Досье
 
Аватар для sergych
Релиз Various Artists - Bossa Nova U.S.A.


2012 - VA - Bossa Nova U.S.A.




Исполнитель/Artist: Various Artists
Альбом/Album: Bossa Nova U.S.A.
Год/Year: 2012
Жанр/Genre: jazz
Страна/Country: Germany
Рекорд-лейбл/Record label: Universal Music / Verve
Номер в каталоге/Catalogue #: 06007 5337850
Формат/Format: Free Lossless Audio Codec (*.flac)
Качество/Quality: Lossless
Тип рипа/RIP Type: tracks+.cue
Продолжительность/Length: 01:12:56
Источник/Source: Собственный рип
Размер/Size: 451.6 MB

Сканы в комплекте

Треклист

01 - Samba With Some Barbecue
02 - O Morro
03 - Dreamer
04 - The Dolphin
05 - O Grande Amor
06 - Desafinado
07 - Mas Que Nada
08 - Um Abraco No Bonfa
09 - Manha de Carnaval
10 - Samba de Orfeu
11 - Nana
12 - Jazz Bossa Nova
13 - Wave
14 - Triste
15 - Tamanco no Samba
16 - Bossa Nova U.S.A.
[свернуть]

EAC лог

Exact Audio Copy V1.0 beta 3 from 29. August 2011

EAC extraction logfile from 5. June 2013, 22:23

Various Artists / Bossa Nova U.S.A.

Used drive : ATAPI iHAS124 D Adapter: 0 ID: 2

Read mode : Secure
Utilize accurate stream : Yes
Defeat audio cache : Yes
Make use of C2 pointers : Yes

Read offset correction : 6
Overread into Lead-In and Lead-Out : No
Fill up missing offset samples with silence : Yes
Delete leading and trailing silent blocks : No
Null samples used in CRC calculations : Yes
Used interface : Installed external ASPI interface
Gap handling : Appended to previous track

Used output format : User Defined Encoder
Selected bitrate : 896 kBit/s
Quality : High
Add ID3 tag : No
Command line compressor : C:\Program Files (x86)\Exact Audio Copy\FLAC\FLAC.EXE
Additional command line options : -6 -V -T "ARTIST=%artist%" -T "TITLE=%title%" -T "ALBUM=%albumtitle%" -T "DATE=%year%" -T "TRACKNUMBER=%tracknr%" -T "GENRE=%genre%" -T "COMMENT=%comment%" -T "BAND=%albuminterpret%" -T "ALBUMARTIST=%albuminterpret%" -T "COMPOSER=%composer%" %haslyrics%--tag-from-file=LYRICS="%lyricsfile%"%haslyrics% -T "DISCNUMBER=%cdnumber%" -T "TOTALDISCS=%totalcds%" -T "TOTALTRACKS=%numtracks%" %hascover%--picture="%coverfile%"%hascover% %source% -o %dest%


TOC of the extracted CD

Track | Start | Length | Start sector | End sector
---------------------------------------------------------
1 | 0:00.00 | 4:31.24 | 0 | 20348
2 | 4:31.24 | 4:47.35 | 20349 | 41908
3 | 9:18.59 | 2:33.40 | 41909 | 53423
4 | 11:52.24 | 3:09.56 | 53424 | 67654
5 | 15:02.05 | 4:45.14 | 67655 | 89043
6 | 19:47.19 | 2:29.37 | 89044 | 100255
7 | 22:16.56 | 2:37.24 | 100256 | 112054
8 | 24:54.05 | 4:52.24 | 112055 | 133978
9 | 29:46.29 | 5:49.32 | 133979 | 160185
10 | 35:35.61 | 4:09.60 | 160186 | 178920
11 | 39:45.46 | 6:20.04 | 178921 | 207424
12 | 46:05.50 | 3:03.22 | 207425 | 221171
13 | 49:08.72 | 10:09.36 | 221172 | 266882
14 | 59:18.33 | 5:23.31 | 266883 | 291138
15 | 64:41.64 | 5:31.72 | 291139 | 316035
16 | 70:13.61 | 3:13.10 | 316036 | 330520


Track 1

Filename C:\mm\VA\2012 - Bossa Nova U.S.A\01 - Samba With Some Barbecue.wav

Pre-gap length 0:00:02.00

Peak level 98.8 %
Extraction speed 8.6 X
Track quality 100.0 %
Test CRC CF85894B
Copy CRC CF85894B
Track not present in AccurateRip database
Copy OK

Track 2

Filename C:\mm\VA\2012 - Bossa Nova U.S.A\02 - O Morro.wav

Pre-gap length 0:00:01.63

Peak level 98.8 %
Extraction speed 9.5 X
Track quality 100.0 %
Test CRC 59A89CAB
Copy CRC 59A89CAB
Track not present in AccurateRip database
Copy OK

Track 3

Filename C:\mm\VA\2012 - Bossa Nova U.S.A\03 - Dreamer.wav

Pre-gap length 0:00:02.15

Peak level 86.0 %
Extraction speed 8.9 X
Track quality 100.0 %
Test CRC 1A723CE6
Copy CRC 1A723CE6
Track not present in AccurateRip database
Copy OK

Track 4

Filename C:\mm\VA\2012 - Bossa Nova U.S.A\04 - The Dolphin.wav

Pre-gap length 0:00:02.12

Peak level 96.4 %
Extraction speed 9.9 X
Track quality 100.0 %
Test CRC 665A7D8B
Copy CRC 665A7D8B
Track not present in AccurateRip database
Copy OK

Track 5

Filename C:\mm\VA\2012 - Bossa Nova U.S.A\05 - O Grande Amor.wav

Pre-gap length 0:00:02.12

Peak level 98.8 %
Extraction speed 9.2 X
Track quality 99.9 %
Test CRC 4519F725
Copy CRC 4519F725
Track not present in AccurateRip database
Copy OK

Track 6

Filename C:\mm\VA\2012 - Bossa Nova U.S.A\06 - Desafinado.wav

Pre-gap length 0:00:01.45

Peak level 98.8 %
Extraction speed 10.2 X
Track quality 100.0 %
Test CRC D3910BDB
Copy CRC D3910BDB
Track not present in AccurateRip database
Copy OK

Track 7

Filename C:\mm\VA\2012 - Bossa Nova U.S.A\07 - Mas Que Nada.wav

Pre-gap length 0:00:02.31

Peak level 98.8 %
Extraction speed 10.8 X
Track quality 100.0 %
Test CRC 04D98C1B
Copy CRC 04D98C1B
Track not present in AccurateRip database
Copy OK

Track 8

Filename C:\mm\VA\2012 - Bossa Nova U.S.A\08 - Um Abraco No Bonfa.wav

Pre-gap length 0:00:01.74

Peak level 98.8 %
Extraction speed 12.7 X
Track quality 100.0 %
Test CRC C4EC3F96
Copy CRC C4EC3F96
Track not present in AccurateRip database
Copy OK

Track 9

Filename C:\mm\VA\2012 - Bossa Nova U.S.A\09 - Manha de Carnaval.wav

Pre-gap length 0:00:02.13

Peak level 95.9 %
Extraction speed 13.8 X
Track quality 100.0 %
Test CRC D68F01C9
Copy CRC D68F01C9
Track not present in AccurateRip database
Copy OK

Track 10

Filename C:\mm\VA\2012 - Bossa Nova U.S.A\10 - Samba de Orfeu.wav

Pre-gap length 0:00:02.02

Peak level 82.5 %
Extraction speed 10.9 X
Track quality 99.9 %
Test CRC 7D1A9FA7
Copy CRC 7D1A9FA7
Track not present in AccurateRip database
Copy OK

Track 11

Filename C:\mm\VA\2012 - Bossa Nova U.S.A\11 - Nana.wav

Pre-gap length 0:00:02.01

Peak level 98.8 %
Extraction speed 15.1 X
Track quality 100.0 %
Test CRC 0EE988C0
Copy CRC 0EE988C0
Track not present in AccurateRip database
Copy OK

Track 12

Filename C:\mm\VA\2012 - Bossa Nova U.S.A\12 - Jazz Bossa Nova.wav

Pre-gap length 0:00:02.03

Peak level 77.8 %
Extraction speed 13.7 X
Track quality 100.0 %
Test CRC ACCE6AE3
Copy CRC ACCE6AE3
Track not present in AccurateRip database
Copy OK

Track 13

Filename C:\mm\VA\2012 - Bossa Nova U.S.A\13 - Wave.wav

Pre-gap length 0:00:02.10

Peak level 98.8 %
Extraction speed 17.2 X
Track quality 100.0 %
Test CRC 6080DDAF
Copy CRC 6080DDAF
Track not present in AccurateRip database
Copy OK

Track 14

Filename C:\mm\VA\2012 - Bossa Nova U.S.A\14 - Triste.wav

Pre-gap length 0:00:01.35

Peak level 75.3 %
Extraction speed 16.7 X
Track quality 100.0 %
Test CRC 987F1096
Copy CRC 987F1096
Track not present in AccurateRip database
Copy OK

Track 15

Filename C:\mm\VA\2012 - Bossa Nova U.S.A\15 - Tamanco no Samba.wav

Pre-gap length 0:00:02.32

Peak level 89.2 %
Extraction speed 17.3 X
Track quality 100.0 %
Test CRC 1D729E79
Copy CRC 1D729E79
Track not present in AccurateRip database
Copy OK

Track 16

Filename C:\mm\VA\2012 - Bossa Nova U.S.A\16 - Bossa Nova U.S.A..wav

Pre-gap length 0:00:02.18

Peak level 98.8 %
Extraction speed 12.1 X
Track quality 99.8 %
Test CRC 1AD90ADB
Copy CRC 1AD90ADB
Track not present in AccurateRip database
Copy OK


None of the tracks are present in the AccurateRip database

No errors occurred

End of status report
[свернуть]

Файл CUE

REM GENRE Latin
REM DATE 2012
REM DISCID F7113610
REM COMMENT "ExactAudioCopy v1.0b3"
PERFORMER "Various Artists"
TITLE "Bossa Nova U.S.A."
FILE "01 - Samba With Some Barbecue.wav" WAVE
TRACK 01 AUDIO
TITLE "Samba With Some Barbecue"
PERFORMER "Paul Desmond"
INDEX 01 00:00:00
TRACK 02 AUDIO
TITLE "O Morro"
PERFORMER "Wes Montgomery"
INDEX 00 04:29:36
FILE "02 - O Morro.wav" WAVE
INDEX 01 00:00:00
TRACK 03 AUDIO
TITLE "Dreamer"
PERFORMER "Gary McFarland"
INDEX 00 04:45:20
FILE "03 - Dreamer.wav" WAVE
INDEX 01 00:00:00
TRACK 04 AUDIO
TITLE "The Dolphin"
PERFORMER "Bill Evans"
INDEX 00 02:31:28
FILE "04 - The Dolphin.wav" WAVE
INDEX 01 00:00:00
TRACK 05 AUDIO
TITLE "O Grande Amor"
PERFORMER "Stan Getz"
INDEX 00 03:07:44
FILE "05 - O Grande Amor.wav" WAVE
INDEX 01 00:00:00
TRACK 06 AUDIO
TITLE "Desafinado"
PERFORMER "Charlie Byrd"
INDEX 00 04:43:44
FILE "06 - Desafinado.wav" WAVE
INDEX 01 00:00:00
TRACK 07 AUDIO
TITLE "Mas Que Nada"
PERFORMER "Hank Jones & Oliver Nelson"
INDEX 00 02:27:06
FILE "07 - Mas Que Nada.wav" WAVE
INDEX 01 00:00:00
TRACK 08 AUDIO
TITLE "Um Abraco No Bonfa"
PERFORMER "Coleman Hawkins"
INDEX 00 02:35:25
FILE "08 - Um Abraco No Bonfa.wav" WAVE
INDEX 01 00:00:00
TRACK 09 AUDIO
TITLE "Manha de Carnaval"
PERFORMER "Vince Guaraldi Trio"
INDEX 00 04:50:11
FILE "09 - Manha de Carnaval.wav" WAVE
INDEX 01 00:00:00
TRACK 10 AUDIO
TITLE "Samba de Orfeu"
PERFORMER "Bob Brookmeyer"
INDEX 00 05:47:30
FILE "10 - Samba de Orfeu.wav" WAVE
INDEX 01 00:00:00
TRACK 11 AUDIO
TITLE "Nana"
PERFORMER "Kenny Burrell"
INDEX 00 04:07:59
FILE "11 - Nana.wav" WAVE
INDEX 01 00:00:00
TRACK 12 AUDIO
TITLE "Jazz Bossa Nova"
PERFORMER "Milt Jackson"
INDEX 00 06:18:01
FILE "12 - Jazz Bossa Nova.wav" WAVE
INDEX 01 00:00:00
TRACK 13 AUDIO
TITLE "Wave"
PERFORMER "Joe Pass & Paulinho Da Costa"
INDEX 00 03:01:12
FILE "13 - Wave.wav" WAVE
INDEX 01 00:00:00
TRACK 14 AUDIO
TITLE "Triste"
PERFORMER "Oscar Peterson Trio"
INDEX 00 10:08:01
FILE "14 - Triste.wav" WAVE
INDEX 01 00:00:00
TRACK 15 AUDIO
TITLE "Tamanco no Samba"
PERFORMER "Cal Tjader"
INDEX 00 05:20:74
FILE "15 - Tamanco no Samba.wav" WAVE
INDEX 01 00:00:00
TRACK 16 AUDIO
TITLE "Bossa Nova U.S.A."
PERFORMER "Quincy Jones & his Orchestra"
INDEX 00 05:29:54
FILE "16 - Bossa Nova U.S.A..wav" WAVE
INDEX 01 00:00:00
[свернуть]

Лог проверки качества

AUDIOCHECKER v2.0 beta (build 457) - by Dester -
~~~~~~~~~~~~~~~~~~~~~~~~~~~~~~~~~~
-=== НЕ РЕДАКТИРУЙТЕ ЭТОТ ФАЙЛ! ===-

Путь: ...\2012 - Bossa Nova U.S.A

01 -=- 01 - Samba With Some Barbecue.flac -=- CDDA (100%)
02 -=- 02 - O Morro.flac -=- CDDA (100%)
03 -=- 03 - Dreamer.flac -=- CDDA (99%)
04 -=- 04 - The Dolphin.flac -=- CDDA (100%)
05 -=- 05 - O Grande Amor.flac -=- CDDA (99%)
06 -=- 06 - Desafinado.flac -=- CDDA (100%)
07 -=- 07 - Mas Que Nada.flac -=- CDDA (100%)
08 -=- 08 - Um Abraco No Bonfa.flac -=- CDDA (100%)
09 -=- 09 - Manha de Carnaval.flac -=- CDDA (100%)
10 -=- 10 - Samba de Orfeu.flac -=- CDDA (100%)
11 -=- 11 - Nana.flac -=- CDDA (100%)
12 -=- 12 - Jazz Bossa Nova.flac -=- CDDA (100%)
13 -=- 13 - Wave.flac -=- CDDA (100%)
14 -=- 14 - Triste.flac -=- CDDA (99%)
15 -=- 15 - Tamanco no Samba.flac -=- CDDA (100%)
16 -=- 16 - Bossa Nova U.S.A..flac -=- CDDA (58%)

Сводка 97,19% CDDA

156277028
[свернуть]

Скачать VA - Bossa Nova U.S.A.



password: sergych
[свернуть]
My opinion of release: 10/10
__________________
TAIFUN.Wings of Soul


Последний раз редактировалось sergych, 10.05.2015 в 18:26. Причина: перезаливка
Вверх
Пользователь сказал cпасибо:
aheron (06.06.2013)
Похожие темы
Тема Автор Раздел Ответов Последнее сообщение
Альбом ABBA - En Bossa Nova by Holly Wilson sergych Chillout 6 01.04.2018 07:56
Альбом John Pizzarelli - Bossa Nova sergych Jazz и Blues 0 16.10.2013 19:16
VA Various Artists - Bossa Nova sergych Jazz и Blues 1 12.04.2013 12:37
Сборник Oscar Peterson - Ballads, Blues & Bossa Nova sergych Jazz и Blues 0 15.12.2010 19:02
Альбом Olivia Ong - A Girl Meets Bossa Nova 2 PUPOKIN Jazz и Blues 0 31.10.2009 09:13


Метки
2012 , bossa nova u.s.a. , jazz , various artists

Опции темы

Ваши права в разделе
Вы не можете создавать новые темы
Вы не можете отвечать в темах
Вы не можете прикреплять вложения
Вы не можете редактировать свои сообщения

Быстрый переход



Текущее время: 21:44. Часовой пояс GMT +3.
Powered by vBulletin® Version 3.8.10
Copyright ©2000 - 2018, vBulletin Solutions, Inc. Перевод: zCarot
© 2008 - 2018 Taifun With Song
Яндекс.Метрика