TAIFUN With Song - качественная и редкая музыка
Навигация
Вернуться   TAIFUN With Song - качественная и редкая музыка > Music (обменник) > Rock > Hard Rock
Расширенный поиск
Hard Rock То, что может восприниматься слушателем как «тяжесть» в хард-роке, достигается, в частности, за счет специфического звучания электрогитары (с такими эффектами, как например, дисторшн и овердрайв) и работы ритм-секции. «Классический» хард-рок обрёл формы в конце 1960-х — начале 1970-х годов в Великобритании. Классический хард-рок отличается от хеви-металла более мелодичным звучанием.

А знаете ли Вы, что...
Каким образом исполняет музыку глухонемой финский рэпер Signmark?
«Финский рэп-исполнитель Марко Вуорихеймо, выступающий под ником Signmark, с рождения глухонемой. Его альбомы выходят одновременно на CD, где записаны звуковые дорожки с вокальными версиями (в исполнении приглашённых рэперов), и DVD, где артист «читает» каждый трек на языке жестов. Signmark даёт много концертов по всему миру, ориентируясь в ритме по вибрации бита и басовой линии. Он стал первым глухим музыкантом, подписавшим контракт с одним из ведущих лейблов — Warner Music.»
 
Опции темы

  #1
Старый 14.07.2008, 21:46
sergych
Координатор
Досье
 
Аватар для sergych
Релиз AC/DC - For Those About To Rock (We Salute You)


1981(1994) - AC/DC - For Those About To Rock (We Salute You)




Исполнитель/Artist: AC/DC
Альбом/Album: For Those About To Rock (We Salute You)
Год/Year: 1981
Ремастеринг/Remaster: 1994
Жанр/Genre: Hard rock
Страна/Country: Германия
Рекорд-лейбл/Record label: ATCO Records
Номер в каталоге/Catalogue #: 7567-92412-2
Формат/Format: Free Lossless Audio Codec (*.flac)
Качество/Quality: Lossless
Тип рипа/RIP Type: image+.cue
Продолжительность/Length: 00:39:59
Источник/Source: Собственный рип
Размер/Size: 364.6 MB

Сканы в комплекте

Треклист

01 - For Those About To Rock (We Salute You)
02 - Put The Finger On You
03 - Let's Get It Up
04 - Inject The Venom
05 - Snowballed
06 - Evil Walks
07 - C.O.D.
08 - Breaking The Rules
09 - Night Of The Long Knives
10 - Spellbound
[свернуть]

youtube.com

[свернуть]

Исполнители/Performers

Brian Johnson – lead vocals
Angus Young – lead guitar
Malcolm Young – rhythm guitar, backing vocals
Cliff Williams – bass guitar, backing vocals
Phil Rudd – drums, percussion
[свернуть]

EAC лог

Exact Audio Copy V1.0 beta 3 from 29. August 2011

EAC extraction logfile from 1. December 2013, 19:16

AC/DC / For Those About to Rock (We Salute You)

Used drive : ATAPI iHAS124 D Adapter: 0 ID: 2

Read mode : Secure
Utilize accurate stream : Yes
Defeat audio cache : Yes
Make use of C2 pointers : No

Read offset correction : 6
Overread into Lead-In and Lead-Out : No
Fill up missing offset samples with silence : Yes
Delete leading and trailing silent blocks : No
Null samples used in CRC calculations : Yes
Used interface : Installed external ASPI interface

Used output format : User Defined Encoder
Selected bitrate : 1024 kBit/s
Quality : High
Add ID3 tag : No
Command line compressor : C:\Program Files (x86)\Exact Audio Copy\Flac\flac.exe
Additional command line options : -6 -V -T "ARTIST=%artist%" -T "TITLE=%title%" -T "ALBUM=%albumtitle%" -T "DATE=%year%" -T "TRACKNUMBER=%tracknr%" -T "GENRE=%genre%" -T "COMMENT=%comment%" -T "BAND=%albuminterpret%" -T "COMPOSER=%composer%" %haslyrics%--tag-from-file=LYRICS="%lyricsfile%"%haslyrics% -T "DISCNUMBER=%cdnumber%" -T "TOTALDISCS=%totalcds%" -T "TOTALTRACKS=%numtracks%" %hascover%--picture="%coverfile%"%hascover% %source% -o %dest%


TOC of the extracted CD

Track | Start | Length | Start sector | End sector
---------------------------------------------------------
1 | 0:00.00 | 5:43.47 | 0 | 25771
2 | 5:43.47 | 3:25.43 | 25772 | 41189
3 | 9:09.15 | 3:53.62 | 41190 | 58726
4 | 13:03.02 | 3:30.55 | 58727 | 74531
5 | 16:33.57 | 3:23.00 | 74532 | 89756
6 | 19:56.57 | 4:23.30 | 89757 | 109511
7 | 24:20.12 | 3:19.55 | 109512 | 124491
8 | 27:39.67 | 4:23.15 | 124492 | 144231
9 | 32:03.07 | 3:25.45 | 144232 | 159651
10 | 35:28.52 | 4:30.58 | 159652 | 179959


Range status and errors

Selected range

Filename C:\mm\AcDc\1981 - For Those About To Rock We Salute You [7567-92412-2]\AC,DC - For Those About to Rock (We Salute You).wav

Suspicious position 0:00:04

Peak level 99.8 %
Extraction speed 1.0 X
Range quality 99.9 %
Test CRC 8A4F3BEE
Copy CRC 9F79853B
Copy finished

There were errors


AccurateRip summary

Track 1 cannot be verified as accurate (confidence 143) [EE54E663], AccurateRip returned [1095970C] (AR v2)
Track 2 accurately ripped (confidence 72) [067EC95F] (AR v2)
Track 3 accurately ripped (confidence 73) [BD5CF97E] (AR v2)
Track 4 accurately ripped (confidence 72) [4FBC9731] (AR v2)
Track 5 accurately ripped (confidence 73) [CF4BCB7B] (AR v2)
Track 6 accurately ripped (confidence 72) [AE5950A1] (AR v2)
Track 7 accurately ripped (confidence 72) [E7FC3DD4] (AR v2)
Track 8 accurately ripped (confidence 73) [D417AA0C] (AR v2)
Track 9 accurately ripped (confidence 72) [3712162F] (AR v2)
Track 10 accurately ripped (confidence 72) [A2380563] (AR v2)

9 трек(и) скопированы точно
1 трек(и) не удалось проверить на точность

Some tracks could not be verified as accurate

End of status report
[свернуть]

Файл CUE

REM DATE 1981
REM DISCID 89095F0A
REM COMMENT "ExactAudioCopy v1.0b3"
PERFORMER "AC/DC"
TITLE "For Those About to Rock (We Salute You)"
FILE "AC,DC - For Those About to Rock (We Salute You).flac" WAVE
TRACK 01 AUDIO
TITLE "For Those About to Rock (We Salute You)"
PERFORMER "AC/DC"
INDEX 01 00:00:00
TRACK 02 AUDIO
TITLE "Put the Finger on You"
PERFORMER "AC/DC"
INDEX 01 05:43:47
TRACK 03 AUDIO
TITLE "Let's Get It Up"
PERFORMER "AC/DC"
INDEX 01 09:09:15
TRACK 04 AUDIO
TITLE "Inject the Venom"
PERFORMER "AC/DC"
INDEX 01 13:03:02
TRACK 05 AUDIO
TITLE "Snowballed"
PERFORMER "AC/DC"
INDEX 01 16:33:57
TRACK 06 AUDIO
TITLE "Evil Walks"
PERFORMER "AC/DC"
INDEX 01 19:56:57
TRACK 07 AUDIO
TITLE "C.O.D."
PERFORMER "AC/DC"
INDEX 01 24:20:12
TRACK 08 AUDIO
TITLE "Breaking the Rules"
PERFORMER "AC/DC"
INDEX 01 27:39:67
TRACK 09 AUDIO
TITLE "Night of the Long Knives"
PERFORMER "AC/DC"
INDEX 01 32:03:07
TRACK 10 AUDIO
TITLE "Spellbound"
PERFORMER "AC/DC"
INDEX 01 35:28:52
[свернуть]

Лог проверки качества

AUDIOCHECKER v2.0 beta (build 457) - by Dester - [Ссылки могут видеть только зарегистрированные и активированные пользователи.]
[Only registered and activated users can see links.]
~~~~~~~~~~~~~~~~~~~~~~~~~~~~~~~~~~
-=== НЕ РЕДАКТИРУЙТЕ ЭТОТ ФАЙЛ! ===-

Путь: ...\1981 - For Those About To Rock We Salute You [7567-92412-2]

1 -=- AC,DC - For Those About to Rock (We Salute You).flac -=- CDDA (100%)

54995620
[свернуть]

Спектр частот

[свернуть]

Скачать AC/DC - For Those About To Rock (We Salute You)

[Ссылки могут видеть только зарегистрированные и активированные пользователи.]
[Only registered and activated users can see links.]

password: sergych
[свернуть]
My opinion of release: 9/10
__________________
TAIFUN.Wings of Soul


Последний раз редактировалось sergych, 24.04.2016 в 12:52. Причина: перезаливка
Вверх
2 пользователя(ей) сказали cпасибо:
dajver (23.04.2010), TAIFUN (24.04.2016)
 
  #2
Старый 24.04.2016, 12:53
sergych
Координатор
Досье
 
Аватар для sergych
По умолчанию Re: AC/DC - For Those About To Rock (We Salute You)

перезалито
__________________
TAIFUN.Wings of Soul

Вверх
Пользователь сказал cпасибо:
TAIFUN (24.04.2016)
Похожие темы
Тема Автор Раздел Ответов Последнее сообщение
Альбом AC/DC - Let There Be Rock sergych Hard Rock 1 24.04.2016 13:25
Релиз Salute - Heart Of The Machine PUPOKIN Hard Rock 0 24.10.2010 09:26
Альбом Salute - Toy Soldier PUPOKIN Hard Rock 0 22.02.2010 09:15
Ищу We Will Rock You RRock-melomanXP Поиск музыки, песен, текстов 3 10.02.2010 13:24
Сборник Rock Legends - 135 Greatest Rock Songs RRock-melomanXP Rock 0 01.10.2009 18:30


Метки
1981 , 1994 , ac/dc , blues rock , for those about to rock (we salute you) , hard rock , rock & roll

Опции темы

Ваши права в разделе
Вы не можете создавать новые темы
Вы не можете отвечать в темах
Вы не можете прикреплять вложения
Вы не можете редактировать свои сообщения

Быстрый переход


Текущее время: 07:17. Часовой пояс GMT +3.


© 2008 - 2020 Taifun With Song
Powered by vBulletin® Version 3.8.10
Copyright ©2000 - 2020, vBulletin Solutions, Inc. Перевод: zCarot
При поддержке NIC.UA
Яндекс.Метрика