TAIFUN With Song
Навигация
Вернуться   TAIFUN With Song > Music (обменник) > Rock > Psychedelic Rock
Расширенный поиск
Psychedelic Rock Психоделический рок — сложная, экспрессивная музыка, сильно воздействующая на слушателя. Для этого используется широкий арсенал средств музыкальной выразительности и специальные эффекты при исполнении музыки. Характерной чертой психоделического рока стали продолжительные сольные партии ведущих инструментов и свой гармонический фон - переплетение мажорных и минорных гармоний, альтерации на 3-й, 5-й, 7-й ступенях и задержания на них, а также частая опора мелодии на неустойчивые звуки.

А знаете ли Вы, что...
Где недавно был совершён акт каннибализма с согласия жертвы?
«В 2001 году в немецком Ротенбурге Армин Майвес поместил в интернете серию каннибальских объявлений в поисках молодого парня в возрасте от 18 до 30 лет, желающего умереть и быть съеденным. На одно из объявлений откликнулся Бернд Брандес. Он, по своему собственному согласию, был убит и частично съеден Майвесом, позже приговорённым к пожизненному заключению. На этот сюжет написана песня «Mein Teil» группы Rammstein.»
 
Опции темы

  #1
Старый 21.11.2012, 03:43
TAIFUN
Admin
Досье
 
Аватар для TAIFUN
По умолчанию Pink Floyd - A Momentary Lapse Of Reason


1987 - Pink Floyd - A Momentary Lapse Of Reason




Исполнитель/Artist: Pink Floyd
Альбом/Album: A Momentary Lapse Of Reason
Год/Year: 1987
Жанр/Genre: Psychedelic Rock
Страна/Country: UK
Рекорд-лейбл/Record label: EMI Records LTD
Номер в каталоге/Catalogue #: CDP 7 48068 2
Формат/Format: Free Lossless Audio Codec (*.flac); ALAC (*.m4a)[отдельный архив]
Качество/Quality: Lossless; ALAC
Тип рипа/RIP Type: image+.cue


Продолжительность/Length: 00:51:13
Источник/Source: Из интернета
Размер/Size: 352 MB (FLAC); 308 MB (ALAC)

Сканы в комплекте (FLAC архив)
Тексты песен и обложка включены в теги треков (ALAC архив содержит тексты, список участников записи, описание альбома и песен)

Release info RInfo

A Momentary Lapse of Reason (в пер. с англ. — Временное помутнение рассудка) — тринадцатый студийный альбом британской прогрессив-рок группы Pink Floyd, выпущенный 7 сентября 1987 года на лейбле EMI Records Ltd. Это первый диск начиная с 1983 года выпущенный группой, а также первый альбом после ухода из неё Роджера Уотерса. Во многом благодаря синглам «Learning to Fly» и «On the Turning Away» альбом достиг третьего места в хит-парадах США и Великобритании.

Для работы над альбомом было приглашено больше десяти сессионных музыкантов. Так, например, на бас-гитаре играл всемирно известный басист Тони Левин, на ударных инструментах Джим Келтнер и Кармин Аппис. Писать тексты песен Гилмору помогал Энтони Мур (Anthony Moore). Фактически из всех членов классического состава Pink Floyd над альбомом полноценно работал лишь Дэвид Гилмор. По словам Гилмора:

Цитата:
Ник сыграл на паре тамтамов в одной из песен, а для остальных мне пришлось нанимать других ударников. Рик играл в нескольких фрагментах. В основном же играл на клавишных я, делая вид, что это он.

«A Momentary Lapse of Reason» был полностью записан в цифровом формате. Однако, акустические барабаны были записаны аналоговым способом.

Сингл «Learning to Fly» с этого альбома можно отметить как впервые выпущенный только для CD формата в Великобритании, США и на других рынках.

Дизайном обложки альбома занимался Сторм Торгесон. После ухода Роджера Уотерса он смог возобновить сотрудничество с Pink Floyd. Дизайн обложки интересен тем, что множество кроватей на ней не монтаж. Торгесон привез сотни больничных кроватей на берег и расставил их на протяжении 2-х миль.

Альбом стал 4 раза платиновым в США в августе 2001 года.


Треклист

1. «Signs of Life» (Признаки жизни); Ezrin, Gilmour; 04:24
2. «Learning to Fly» (Учимся летать); Moore, Ezrin, Gilmour, Carin; 04:53
3. «The Dogs of War» (Псы войны); Moore, Gilmour; 06:05
4. «One Slip» (Один промах); Gilmour, Manzanera; 05:10
5. «On the Turning Away» (Отречение); Moore, Gilmour; 05:42
6. «Yet Another Movie» (И ещё одно кино); Gilmour; 06:18
6a. «Round and Around» (Вокруг да около); Gilmour, Leonard; 01:10
7. «A New Machine (Part 1)» (Новая машина — Часть 1); Gilmour; 01:46
8. «Terminal Frost» (Предельный мороз); Gilmour; 06:17
9. «A New Machine (Part 2)» (Новая машина — Часть 2); Gilmour; 00:38
10. «Sorrow» (Печаль); Gilmour; 08:47
[свернуть]

Исполнители/Performers

Pink Floyd

Дэвид Гилмор — вокал, гитара, клавишные
Ник Мейсон — ударные, перкуссия

А также

Ричард Райт — клавишные, бэк-вокал
Боб Эзрин — клавишные, ударные, синтезатор
Тони Левин (Tony Levin) — бас-гитара
Джим Келтнер (Jim Keltner) — ударные
Стив Формэн (Steve Forman) — ударные
Джон Кэрин (Jon Carin) — клавишные
Майкл Лэндау (Michael Landau) — гитара
Том Скотт (Tom Scott) — саксофон
Скотт Пэйдж (Scott Page) — саксофон
Кармин Аппис (Carmine Appice) — ударные
Билл Пэйн (Bill Payne) — Орган Хаммонда
Пэт Леонард (Pat Leonard) — синтезатор
Джон Хэлливел (John Halliwell) — саксофон
Дарлин Колденхэвен (Darlene Koldenhaven), Кэрмен Твайли (Carmen Twillie), Филлис Джеймс (Phyllis St. James), Донни Джерард (Donnie Gerrard) — бэк-вокал
[свернуть]

EAC лог

Exact Audio Copy V0.99 prebeta 4 from 23. January 2008

EAC extraction logfile from 6. April 2010, 12:23

Pink Floyd / A Momentary Lapse Of Reason (CDP 7 48068 2)

Used drive : PIONEER DVD-RW DVR-105 Adapter: 0 ID: 1

Read mode : Secure
Utilize accurate stream : Yes
Defeat audio cache : Yes
Make use of C2 pointers : No

Read offset correction : 48
Overread into Lead-In and Lead-Out : No
Fill up missing offset samples with silence : Yes
Delete leading and trailing silent blocks : No
Null samples used in CRC calculations : Yes
Used interface : Installed external ASPI interface

Used output format : User Defined Encoder
Selected bitrate : 768 kBit/s
Quality : High
Add ID3 tag : No
Command line compressor : C:\Program Files\Exact Audio Copy\Flac\flac.exe
Additional command line options : -8 -V -T "ARTIST=%a" -T "TITLE=%t" -T "ALBUM=%g" -T "DATE=%y" -T "TRACKNUMBER=%n" -T "GENRE=%m" -T "COMMENT=%e" %s -o %d


TOC of the extracted CD

Track | Start | Length | Start sector | End sector
---------------------------------------------------------
1 | 0:00.32 | 4:24.30 | 32 | 19861
2 | 4:24.62 | 4:53.20 | 19862 | 41856
3 | 9:18.07 | 6:05.40 | 41857 | 69271
4 | 15:23.47 | 5:10.35 | 69272 | 92556
5 | 20:34.07 | 5:42.28 | 92557 | 118234
6 | 26:16.35 | 7:28.00 | 118235 | 151834
7 | 33:44.35 | 1:46.45 | 151835 | 159829
8 | 35:31.05 | 6:17.07 | 159830 | 188111
9 | 41:48.12 | 0:38.53 | 188112 | 191014
10 | 42:26.65 | 8:46.65 | 191015 | 230529


Range status and errors

Selected range

Filename C:\Pink Floyd . 1987 . A Momentary Lapse Of Reason (CDP 7 48068 2)\Pink Floyd . 1987 . A Momentary Lapse Of Reason (CDP 7 48068 2).wav

Peak level 100.0 %
Range quality 100.0 %
Test CRC 022F376E
Copy CRC 022F376E
Copy OK

No errors occurred


AccurateRip summary

Track 1 accurately ripped (confidence 49) [70350CE0]
Track 2 accurately ripped (confidence 50) [38888545]
Track 3 accurately ripped (confidence 48) [DEF3AE3D]
Track 4 accurately ripped (confidence 50) [A68D479A]
Track 5 accurately ripped (confidence 49) [3D0F2C0A]
Track 6 accurately ripped (confidence 49) [FEEA7B74]
Track 7 accurately ripped (confidence 50) [E4CEDED4]
Track 8 accurately ripped (confidence 48) [88FDAC84]
Track 9 accurately ripped (confidence 50) [F7394861]
Track 10 accurately ripped (confidence 49) [9D10C061]

All tracks accurately ripped

End of status report
[свернуть]

Файл CUE

REM GENRE Rock
REM DATE 1987
REM DISCID 7A0C010A
REM COMMENT "ExactAudioCopy v0.99pb4"
PERFORMER "Pink Floyd"
TITLE "A Momentary Lapse Of Reason (CDP 7 48068 2)"
FILE "Pink Floyd . 1987 . A Momentary Lapse Of Reason (CDP 7 48068 2).flac" WAVE
TRACK 01 AUDIO
TITLE "Signs Of Life"
PERFORMER "Pink Floyd"
INDEX 00 00:00:00
INDEX 01 00:00:32
TRACK 02 AUDIO
TITLE "Learning To Fly"
PERFORMER "Pink Floyd"
INDEX 00 04:24:60
INDEX 01 04:24:62
TRACK 03 AUDIO
TITLE "The Dogs Of War"
PERFORMER "Pink Floyd"
INDEX 00 09:17:02
INDEX 01 09:18:07
TRACK 04 AUDIO
TITLE "One Slip"
PERFORMER "Pink Floyd"
INDEX 00 15:23:45
INDEX 01 15:23:47
TRACK 05 AUDIO
TITLE "On The Turning Away"
PERFORMER "Pink Floyd"
INDEX 00 20:31:27
INDEX 01 20:34:07
TRACK 06 AUDIO
TITLE "Yet Another Movie / Round And Around"
PERFORMER "Pink Floyd"
INDEX 00 26:13:62
INDEX 01 26:16:35
TRACK 07 AUDIO
TITLE "A New Machine Part 1"
PERFORMER "Pink Floyd"
INDEX 00 33:42:35
INDEX 01 33:44:35
TRACK 08 AUDIO
TITLE "Terminal Frost"
PERFORMER "Pink Floyd"
INDEX 00 35:31:02
INDEX 01 35:31:05
TRACK 09 AUDIO
TITLE "A New Machine Part 2"
PERFORMER "Pink Floyd"
INDEX 00 41:48:10
INDEX 01 41:48:12
TRACK 10 AUDIO
TITLE "Sorrow"
PERFORMER "Pink Floyd"
INDEX 00 42:26:62
INDEX 01 42:26:65
[свернуть]

Скачать Pink Floyd - A Momentary Laps Of Reason




pass: taifun.ws
[свернуть]
My opinion of release: 10/10
__________________
I love music
FAQ по форуму
Правила форума
Жизнь человека - это не самое главное в его жизни...


Последний раз редактировалось TAIFUN, 07.11.2018 в 18:15. Причина: Откорректировал плейлист и номер в каталоге
Вверх
3 пользователя(ей) сказали cпасибо:
Показать список поблагодаривших
  #2
Старый 09.03.2014, 12:37
sergych
Координатор
Досье
 
Аватар для sergych
Релиз Re: Pink Floyd - A Momentary Lapse Of Reason


1987 - Pink Floyd - A Momentary Lapse Of Reason




Исполнитель/Artist: Pink Floyd
Альбом/Album: A Momentary Lapse Of Reason
Год/Year: 1987
Жанр/Genre: Psychedelic Rock
Страна/Country: Соединённые Штаты
Рекорд-лейбл/Record label: Columbia
Номер в каталоге/Catalogue #: CK 40599
Формат/Format: Free Lossless Audio Codec (*.flac)
Качество/Quality: Lossless
Тип рипа/RIP Type: image+.cue
Продолжительность/Length: 00:51:14
Источник/Source: Собственный рип
Размер/Size: 328.8 MB

Сканы в комплекте

Треклист

01. Signs Of Life [0:04:24.60]
02. Learning To Fly [0:04:53.42]
03. The Dogs Of War [0:06:10.45]
04. One Slip [0:05:04.60]
05. On The Turning Away [0:05:41.63]
06. Yet Another Movie \ Round And Around [0:07:28.27]
07. A New Machine, Pt 1 [0:01:46.25]
08. Terminal Frost [0:06:17.08]
09. A New Machine, Pt 2 [0:00:38.60]
10. Sorrow [0:08:48.57]
[свернуть]

youtube.com

[свернуть]

Исполнители/Performers

David Gilmour - vocals, guitars, keyboards, sequencers
Nick Mason - drums, percussion, drum machine, sound effects
Richard Wright - keyboards, vocals
Bob Ezrin - keyboards, percussion, sequencers
Tony Levin - bass guitar, Chapman Stick
Jim Keltner - drums, percussion
Steve Forman - percussion
Jon Carin - keyboards
Tom Scott - alto saxophone, soprano saxophone
Scott Page - tenor saxophone
Carmine Appice - drums
Patrick Leonard - synthesizers
Bill Payne - Hammond organ
Michael Landau - guitar
John Helliwell - saxophone (credited as "John Halliwell")
Darlene Koldenhoven (as Darlene Koldenhaven) - backing vocals
Carmen Twillie - backing vocals
Phyllis St. James - backing vocals
Donnie Gerrard - backing vocals
[свернуть]

EAC лог

Exact Audio Copy V1.0 beta 3 from 29. August 2011

EAC extraction logfile from 9. March 2014, 13:44

Pink Floyd / A Momentary Lapse Of Reason

Used drive : ATAPI iHAS124 D Adapter: 0 ID: 2

Read mode : Secure
Utilize accurate stream : Yes
Defeat audio cache : Yes
Make use of C2 pointers : Yes

Read offset correction : 6
Overread into Lead-In and Lead-Out : No
Fill up missing offset samples with silence : Yes
Delete leading and trailing silent blocks : No
Null samples used in CRC calculations : Yes
Used interface : Installed external ASPI interface

Used output format : User Defined Encoder
Selected bitrate : 1024 kBit/s
Quality : High
Add ID3 tag : No
Command line compressor : C:\Program Files (x86)\Exact Audio Copy\Flac\flac.exe
Additional command line options : -6 -V -T "ARTIST=%artist%" -T "TITLE=%title%" -T "ALBUM=%albumtitle%" -T "DATE=%year%" -T "TRACKNUMBER=%tracknr%" -T "GENRE=%genre%" -T "COMMENT=%comment%" -T "BAND=%albuminterpret%" -T "COMPOSER=%composer%" %haslyrics%--tag-from-file=LYRICS="%lyricsfile%"%haslyrics% -T "DISCNUMBER=%cdnumber%" -T "TOTALDISCS=%totalcds%" -T "TOTALTRACKS=%numtracks%" %hascover%--picture="%coverfile%"%hascover% %source% -o %dest%


TOC of the extracted CD

Track | Start | Length | Start sector | End sector
---------------------------------------------------------
1 | 0:00.00 | 4:24.60 | 0 | 19859
2 | 4:24.60 | 4:53.42 | 19860 | 41876
3 | 9:18.27 | 6:10.45 | 41877 | 69671
4 | 15:28.72 | 5:04.60 | 69672 | 92531
5 | 20:33.57 | 5:41.63 | 92532 | 118169
6 | 26:15.45 | 7:28.27 | 118170 | 151796
7 | 33:43.72 | 1:46.25 | 151797 | 159771
8 | 35:30.22 | 6:17.08 | 159772 | 188054
9 | 41:47.30 | 0:38.60 | 188055 | 190964
10 | 42:26.15 | 8:48.57 | 190965 | 230621


Range status and errors

Selected range

Filename C:\mm\Pink Floyd\1987 - A Momentary Laps Of Reason [CK 40599]\Pink Floyd - A Momentary Lapse Of Reason.wav

Peak level 100.0 %
Extraction speed 14.1 X
Range quality 100.0 %
Test CRC 9A8BA2EC
Copy CRC 9A8BA2EC
Copy OK

No errors occurred


AccurateRip summary

Track 1 accurately ripped (confidence 23) [ADC27928] (AR v2)
Track 2 accurately ripped (confidence 23) [1724F326] (AR v2)
Track 3 accurately ripped (confidence 23) [00440950] (AR v2)
Track 4 accurately ripped (confidence 23) [EF3C0341] (AR v2)
Track 5 accurately ripped (confidence 22) [43BD610F] (AR v2)
Track 6 accurately ripped (confidence 23) [B78C745D] (AR v2)
Track 7 accurately ripped (confidence 23) [676F2A7F] (AR v2)
Track 8 accurately ripped (confidence 23) [A77AF02A] (AR v2)
Track 9 accurately ripped (confidence 23) [C755A0EC] (AR v2)
Track 10 accurately ripped (confidence 23) [7DC96C43] (AR v2)

All tracks accurately ripped

End of status report
[свернуть]

Файл CUE

REM GENRE Psychedelic\Rock*
REM DATE 1987
REM DISCID 7A0C020A
REM COMMENT "ExactAudioCopy v1.0b3"
PERFORMER "Pink Floyd"
TITLE "A Momentary Lapse Of Reason"
FILE "Pink Floyd - A Momentary Lapse Of Reason.flac" WAVE
TRACK 01 AUDIO
TITLE "Signs Of Life"
PERFORMER "Pink Floyd"
INDEX 01 00:00:00
TRACK 02 AUDIO
TITLE "Learning To Fly"
PERFORMER "Pink Floyd"
INDEX 01 04:24:60
TRACK 03 AUDIO
TITLE "The Dogs Of War"
PERFORMER "Pink Floyd"
INDEX 00 09:18:17
INDEX 01 09:18:27
TRACK 04 AUDIO
TITLE "One Slip"
PERFORMER "Pink Floyd"
INDEX 01 15:28:72
TRACK 05 AUDIO
TITLE "On The Turning Away"
PERFORMER "Pink Floyd"
INDEX 00 20:33:35
INDEX 01 20:33:57
TRACK 06 AUDIO
TITLE "Yet Another Movie \ Round And Around"
PERFORMER "Pink Floyd"
INDEX 00 26:12:32
INDEX 01 26:15:45
TRACK 07 AUDIO
TITLE "A New Machine, Pt 1"
PERFORMER "Pink Floyd"
INDEX 00 33:42:67
INDEX 01 33:43:72
TRACK 08 AUDIO
TITLE "Terminal Frost"
PERFORMER "Pink Floyd"
INDEX 01 35:30:22
TRACK 09 AUDIO
TITLE "A New Machine, Pt 2"
PERFORMER "Pink Floyd"
INDEX 00 41:47:20
INDEX 01 41:47:30
TRACK 10 AUDIO
TITLE "Sorrow"
PERFORMER "Pink Floyd"
INDEX 01 42:26:15
[свернуть]

Лог проверки качества

AUDIOCHECKER v2.0 beta (build 457) - by Dester -
~~~~~~~~~~~~~~~~~~~~~~~~~~~~~~~~~~
-=== НЕ РЕДАКТИРУЙТЕ ЭТОТ ФАЙЛ! ===-

Путь: ...\1987 - A Momentary Laps Of Reason [CK 40599]

1 -=- Pink Floyd - A Momentary Lapse Of Reason.flac -=- MPEG (95%)

95443716
[свернуть]

Спектр частот

[свернуть]

Скачать Pink Floyd - A Momentary Lapse Of Reason



password: sergych
[свернуть]
My opinion of release: 10/10
__________________
TAIFUN.Wings of Soul

Вверх
7 пользователя(ей) сказали cпасибо:
Показать список поблагодаривших
  #3
Старый 03.11.2018, 17:47
burnett_s
Меломан
Досье
 
Аватар для burnett_s
По умолчанию Pink Floyd - A Momentary Lapse Of Reason


1987 - Pink Floyd - A Momentary Lapse Of Reason




Исполнитель/Artist: Pink Floyd
Альбом/Album: A Momentary Lapse Of Reason
Год/Year: 1987
Жанр/Genre: Psychedelic Rock
Страна/Country: Соединённые Штаты
Рекорд-лейбл/Record label: Columbia
Номер в каталоге/Catalogue #: CK 40599
Формат/Format: Free Lossless Audio Codec (*.flac)
Качество/Quality: Lossless
Тип рипа/RIP Type: image+.cue


Продолжительность/Length: 00:51:12
Источник/Source: Собственный рип
Размер/Size: 1.09 GB

Сканы в комплекте

Треклист

1. «Signs of Life» (Признаки жизни) Гилмор, Эзрин 04:24
2. «Learning to Fly» (Учимся летать) Гилмор, Мур, Эзрин, Кэрин 04:53
3. «The Dogs of War» (Псы войны) Гилмор, Мур 06:09
4. «One Slip» (Один промах) Гилмор, Манзанера 05:07
5. «On the Turning Away» (Отречение) Гилмор, Мур 05:42
6. «Yet Another Movie» (И ещё одно кино) Гилмор, Леонард + «Round and Around» (Вокруг да около) Гилмор 07:28
7. «A New Machine (Part 1)» (Новая машина — Часть 1) Гилмор 01:46
8. «Terminal Frost» (Предельный мороз) Гилмор 06:17
9. «A New Machine (Part 2)» (Новая машина — Часть 2) Гилмор 00:39
10. «Sorrow» (Печаль) Гилмор 08:47
[свернуть]

Исполнители/Performers

Companies, etc.

Manufactured By – Columbia Records
Manufactured By – CBS Inc.
Recorded By – Le Mobile
Phonographic Copyright (p) – CBS Inc.
Copyright (c) – CBS Inc.
Pressed By – Columbia Records Pressing Plant, Pitman
Copyright (c) – Pink Floyd Music Publishers Inc.
Recorded At – Astoria (2)
Recorded At – Britannia Row Studios
Recorded At – A&M Studios
Recorded At – Can-Am Recorders
Recorded At – The Village Recorder
Recorded At – Mayfair Studios
Recorded At – Audio International Studios
Mastered At – The Mastering Lab
Mastered At – Precision Lacquer

Credits

Alto Saxophone, Soprano Saxophone – Tom Scott
Art Direction – Storm Thorgerson
Backing Vocals – Carmen Twillie, Darlene Koldenhaven*, Donnie Gerrard*, Phyllis St. James
Bass Guitar, Percussion [Stick] – Tony Levin
Concept By [Front Cover] – Nexus (38), Storm Thorgerson
Design [Graphic Design] – Andrew Ellis, Icon, London*
Drums – Carmine Appice, Jim Keltner
Effects [Additional Sound Effects] – Andrew Jackson*
Effects [Spherical Sound] – Ken Caillats*, Sarah Bruce, Tom Jones (4)
Electronic Drums, Drums [Acoustic], Effects [Sound Effects] – Nick Mason
Engineer [Assistant] – Robert (Ringo) Hrycyna*
Engineer [Recording And Mixing] – Andrew Jackson*
Engineer [With] – Jeff Demorris, Marc Desisto, Stan Katayama
Guitar – Michael Landau
Guitar [Guitars], Vocals, Keyboards, Sequenced By [Sequencers] – David Gilmour
Keyboards – Jon Carin
Keyboards, Percussion, Sequenced By [Sequencers] – Bob Ezrin
Organ [Hammond] – Bill Payne
Percussion – Steve Forman
Photography By – Robert Dowling
Photography By [Additional] – Robert Mort
Photography By [Artwork] – Mekon (2)
Photography By [Portrait] – David Bailey (5)
Photography By [Production] – Lance Williams, Richard Shaw (7)
Piano, Vocals, Keyboards [Kurzweil], Organ [Hammond] – Richard Wright
Producer – Bob Ezrin, David Gilmour
Recorded By – Guy Charbonneau
Saxophone – John Halliwell*
Synthesizer [Synthesizers] – Pat Leonard*
Technician [General Technical & Musical Instrument Supervision] – Phil Taylor (5)
Tenor Saxophone – Scott Page
[свернуть]

EAC лог

Exact Audio Copy V1.3 from 2. September 2016

EAC extraction logfile from 5. November 2018, 22:04

Pink Floyd / A Momentary Lapse of Reason (CK 40599)

Used drive : PLDS DVD+-RW DU-8A5LH Adapter: 1 ID: 1

Read mode : Secure
Utilize accurate stream : Yes
Defeat audio cache : Yes
Make use of C2 pointers : No

Read offset correction : 6
Overread into Lead-In and Lead-Out : No
Fill up missing offset samples with silence : Yes
Delete leading and trailing silent blocks : No
Null samples used in CRC calculations : Yes
Used interface : Native Win32 interface for Win NT & 2000

Used output format : User Defined Encoder
Selected bitrate : 1024 kBit/s
Quality : High
Add ID3 tag : No
Command line compressor : C:\Program Files (x86)\Exact Audio Copy\Codecs\flac.exe
Additional command line options : -V -8 -T "Genre=%genre%" -T "Artist=%artist%" -T "Title=%title%" -T "Album=%albumtitle%" -T "Date=%year%" -T "Tracknumber=%tracknr%" -T "Comment=%comment%" %source%


TOC of the extracted CD

Track | Start | Length | Start sector | End sector
---------------------------------------------------------
1 | 0:00.00 | 4:23.42 | 0 | 19766
2 | 4:23.42 | 4:53.18 | 19767 | 41759
3 | 9:16.60 | 6:08.72 | 41760 | 69431
4 | 15:25.57 | 5:06.50 | 69432 | 92431
5 | 20:32.32 | 5:41.63 | 92432 | 118069
6 | 26:14.20 | 7:28.22 | 118070 | 151691
7 | 33:42.42 | 1:46.25 | 151692 | 159666
8 | 35:28.67 | 6:17.05 | 159667 | 187946
9 | 41:45.72 | 0:38.60 | 187947 | 190856
10 | 42:24.57 | 8:47.00 | 190857 | 230381


Range status and errors

Selected range

Filename C:\EAC Rips\Pink Floyd - A Momentary Lapse of Reason (CK 40599).wav

Peak level 57.5 %
Extraction speed 1.8 X
Range quality 99.9 %
Test CRC 0F2E8521
Copy CRC 0F2E8521
Copy OK

No errors occurred


AccurateRip summary

Track 1 accurately ripped (confidence 52) [FC034BBC] (AR v2)
Track 2 accurately ripped (confidence 53) [527B6B2E] (AR v2)
Track 3 accurately ripped (confidence 51) [B363A864] (AR v2)
Track 4 accurately ripped (confidence 52) [5D4461E5] (AR v2)
Track 5 accurately ripped (confidence 52) [84734CDF] (AR v2)
Track 6 accurately ripped (confidence 52) [1ADFB8A2] (AR v2)
Track 7 accurately ripped (confidence 52) [63561172] (AR v2)
Track 8 accurately ripped (confidence 52) [85F47D07] (AR v2)
Track 9 accurately ripped (confidence 53) [C5F79C9B] (AR v2)
Track 10 accurately ripped (confidence 53) [90458E0A] (AR v2)

All tracks accurately ripped

End of status report

---- CUETools DB Plugin V2.1.6

[CTDB TOCID: 6d4ofa9V9H5F_cYSKRChay.8dvQ-] found
Submit result: 6d4ofa9V9H5F_cYSKRChay.8dvQ- has been confirmed
Track | CTDB Status
1 | (316/325) Accurately ripped
2 | (320/325) Accurately ripped
3 | (318/325) Accurately ripped
4 | (319/325) Accurately ripped
5 | (319/325) Accurately ripped
6 | (320/325) Accurately ripped
7 | (319/325) Accurately ripped
8 | (314/325) Accurately ripped
9 | (318/325) Accurately ripped
10 | (312/325) Accurately ripped


==== Log checksum 222E850C65A4C99D886079E896D97E26CE49A7595C6FCF9617E3D766C815A08F ====
[свернуть]

Файл CUE

REM GENRE "Progressive Rock"
REM DATE 1987
REM DISCID 7D0BFF0A
REM COMMENT "ExactAudioCopy v1.3"
PERFORMER "Pink Floyd"
TITLE "A Momentary Lapse of Reason (CK 40599)"
REM COMPOSER ""
FILE "Pink Floyd - A Momentary Lapse of Reason (CK 40599).flac" WAVE
TRACK 01 AUDIO
TITLE "Signs of Life"
PERFORMER "Pink Floyd"
REM COMPOSER ""
INDEX 01 00:00:00
TRACK 02 AUDIO
TITLE "Learning to Fly"
PERFORMER "Pink Floyd"
REM COMPOSER ""
INDEX 01 04:23:42
TRACK 03 AUDIO
TITLE "The Dogs of War"
PERFORMER "Pink Floyd"
REM COMPOSER ""
INDEX 00 09:14:55
INDEX 01 09:16:60
TRACK 04 AUDIO
TITLE "One Slip"
PERFORMER "Pink Floyd"
REM COMPOSER ""
INDEX 01 15:25:57
TRACK 05 AUDIO
TITLE "On the Turning Away"
PERFORMER "Pink Floyd"
REM COMPOSER ""
INDEX 00 20:29:05
INDEX 01 20:32:32
TRACK 06 AUDIO
TITLE "Yet Another Movie / Round and Around"
PERFORMER "Pink Floyd"
REM COMPOSER ""
INDEX 00 26:11:05
INDEX 01 26:14:20
TRACK 07 AUDIO
TITLE "A New Machine, Part 1"
PERFORMER "Pink Floyd"
REM COMPOSER ""
INDEX 00 33:38:65
INDEX 01 33:42:42
TRACK 08 AUDIO
TITLE "Terminal Frost"
PERFORMER "Pink Floyd"
REM COMPOSER ""
INDEX 01 35:28:67
TRACK 09 AUDIO
TITLE "A New Machine, Part 2"
PERFORMER "Pink Floyd"
REM COMPOSER ""
INDEX 00 41:45:62
INDEX 01 41:45:72
TRACK 10 AUDIO
TITLE "Sorrow"
PERFORMER "Pink Floyd"
REM COMPOSER ""
INDEX 01 42:24:57
[свернуть]

Лог проверки качества

AUDIOCHECKER v2.0 beta (build 457) - by Dester -
~~~~~~~~~~~~~~~~~~~~~~~~~~~~~~~~~~
-=== DO NOT EDIT THIS FILE! ===-

Path: ...\EAC Rips

1 -=- Pink Floyd - A Momentary Lapse of Reason (CK 40599).flac -=- CDDA (100%)

185803460
[свернуть]

Спектр частот

[свернуть]

Скачать Pink Floyd - A Momentary Lapse Of Reason

[свернуть]

Контрольная сумма (хеш-сумма) архива

MD5: 90cd489a7d397f61d4484c6ecebf2f90
[свернуть]
Release info RInfo

Рип диска как у sergych, но:
- при рипе в EAC было задействован процесс сжатия во FLAC
- отличие в длительности некоторых композиций:
3. «The Dogs of War» 06:09
4. «One Slip» 05:07
9. «A New Machine (Part 2)» 00:39
10. «Sorrow» 08:47

Вверх
3 пользователя(ей) сказали cпасибо:
Показать список поблагодаривших
  #4
Старый 04.11.2018, 01:34
TAIFUN
Admin
Досье
 
Аватар для TAIFUN
По умолчанию Re: Pink Floyd - A Momentary Lapse Of Reason

sergych, тёзка, диск самопальный.

Цитата: Сообщение от sergych Посмотреть сообщение
1 -=- Pink Floyd - A Momentary Lapse Of Reason.flac -=- MPEG (95%)

А должно быть CDDA.
Ну и на скриншоте спектра частот срезаны вершины как газонокосилкой.)
__________________
I love music
FAQ по форуму
Правила форума
Жизнь человека - это не самое главное в его жизни...

Вверх
Пользователь сказал cпасибо:
sergych (04.11.2018)
  #5
Старый 04.11.2018, 11:38
sergych
Координатор
Досье
 
Аватар для sergych
По умолчанию Re: Pink Floyd - A Momentary Lapse Of Reason

TAIFUN, Серж, сразу аргументированно ответить не смогу, хотя у меня есть ещё этот альбом итальянского "разлива" с таким же резюме AUDIOCHECKER'а (рипнул тогда же и его, но выкладывать не стал). Америкос с лазерной гравировкой по краю диска (на скрине её видно) и выдавленной надписью " Made in USA-Digital Audio Dusk Corp." на внутреннем кольце.
Вроде бы пиратюги на подобные лишние затраты всегда скупились.
Могу предположить, что разные исходники всё-таки могли отличаться, как и оборудование у разных издателей. Отсюда и разброс качества в изданиях.
А спектр в китайском фейке Discovery ещё лучше,т.ч. не все пиратки одиноково вредны
Впрочем, если считаешь, что лучше этот рип убрать, - не вопрос. Я не против
__________________
TAIFUN.Wings of Soul

Вверх
2 пользователя(ей) сказали cпасибо:
johnsilver (04.11.2018), TAIFUN (04.11.2018)
  #6
Старый 04.11.2018, 13:10
johnsilver
Меломан
Досье
 
Аватар для johnsilver
По умолчанию Re: Pink Floyd - A Momentary Lapse Of Reason

Приветствую, меломаны! Позвольте вбросить свои 5 копеек...

Вот спектр этого рипа от ув. sergychа:



а это, к примеру, спектр другого америкосовского издания, тоже Columbia CK 40599, но оно с другим уровнем (Пиковый уровень 57.5 %):



Разницы особой не видно вроде по спектрам. Однако определяется он как CDDA 100%. И вообще, очень многие диски 80-х годов выпуска распознаются как MPEG, так что ничего удивительного...

Ну и, совпадений по базам Аккурипа достаточно у sergychа:

Log

[CUETools log; Date: 04.11.2018 11:01:02; Version: 2.1.6]
[CTDB TOCID: M.zuLQQXyLDjQcSfHYMlckoExxY-] found.
Track | CTDB Status
1 | (753/770) Accurately ripped
2 | (758/770) Accurately ripped
3 | (756/770) Accurately ripped
4 | (762/770) Accurately ripped
5 | (760/770) Accurately ripped
6 | (758/770) Accurately ripped
7 | (762/770) Accurately ripped
8 | (757/770) Accurately ripped
9 | (759/770) Accurately ripped
10 | (743/770) Accurately ripped
[AccurateRip ID: 001346da-009a0b66-7a0c020a] found.
Track [ CRC | V2 ] Status
01 [5c8f7628|adc27928] (050+042/832) Accurately ripped
02 [c8258811|1724f326] (052+042/843) Accurately ripped
03 [91476eab|00440950] (051+041/836) Accurately ripped
04 [47004abc|ef3c0341] (051+042/839) Accurately ripped
05 [bd193672|43bd610f] (052+041/839) Accurately ripped
06 [6c3acc47|b78c745d] (051+042/826) Accurately ripped
07 [f99ad04e|676f2a7f] (051+042/840) Accurately ripped
08 [f37418d6|a77af02a] (051+042/828) Accurately ripped
09 [426e477d|c755a0ec] (050+042/841) Accurately ripped
10 [1453cfbb|7dc96c43] (048+042/800) Accurately ripped
Offsetted by -2277:
01 [c963b15c] (016/832) Accurately ripped
02 [efd4a13e] (016/843) Accurately ripped
03 [628ef73b] (016/836) Accurately ripped
04 [dfadd14d] (016/839) Accurately ripped
05 [266cd11f] (016/839) Accurately ripped
06 [7fb76219] (016/826) Accurately ripped
07 [cb3215ae] (016/840) Accurately ripped
08 [b9c33423] (016/828) Accurately ripped
09 [95fe53fa] (016/841) Accurately ripped
10 [442b465a] (015/800) Accurately ripped
Offsetted by -1587:
01 [0d9e2a18] (009/832) Accurately ripped
02 [a1da50f4] (009/843) Accurately ripped
03 [e0237972] (009/836) Accurately ripped
04 [fefc2ce9] (009/839) Accurately ripped
05 [0efcf9d1] (009/839) Accurately ripped
06 [426cd368] (007/826) Accurately ripped
07 [c7184a20] (008/840) Accurately ripped
08 [b1972b44] (008/828) Accurately ripped
09 [f7fd3359] (009/841) Accurately ripped
10 [f7afecec] (007/800) Accurately ripped
Offsetted by -512:
01 [209a0944] (002/832) Accurately ripped
02 [1faa740e] (002/843) Accurately ripped
03 [7f926c23] (002/836) Accurately ripped
04 [8e43b164] (002/839) Accurately ripped
05 [4f95e1ed] (002/839) Accurately ripped
06 [d8fa9a44] (002/826) Accurately ripped
07 [1b6e56b3] (002/840) Accurately ripped
08 [694bb291] (002/828) Accurately ripped
09 [76ca783d] (002/841) Accurately ripped
10 [c8e972ee] (002/800) Accurately ripped
Offsetted by -511:
01 [bc075672] (018/832) Accurately ripped
02 [904bc4f6] (018/843) Accurately ripped
03 [fe3909e3] (017/836) Accurately ripped
04 [a14a0bf1] (018/839) Accurately ripped
05 [d14024c7] (018/839) Accurately ripped
06 [6af10ad4] (016/826) Accurately ripped
07 [9b4f4455] (018/840) Accurately ripped
08 [2d37b322] (017/828) Accurately ripped
09 [2c1a21ab] (017/841) Accurately ripped
10 [96fa3562] (017/800) Accurately ripped
Offsetted by -440:
01 [688815bd] (086/832) Accurately ripped
02 [aaa38d79] (087/843) Accurately ripped
03 [2a00128f] (087/836) Accurately ripped
04 [a1aa7a51] (086/839) Accurately ripped
05 [2960b97c] (084/839) Accurately ripped
06 [0961ff33] (082/826) Accurately ripped
07 [64625517] (086/840) Accurately ripped
08 [9e614107] (083/828) Accurately ripped
09 [9b55110c] (084/841) Accurately ripped
10 [31afbddf] (081/800) Accurately ripped
Offsetted by -418:
01 [037cb585] (002/832) Accurately ripped
02 [8cd3741f] (002/843) Accurately ripped
03 [5aa91a5d] (002/836) Accurately ripped
04 [2b23c455] (002/839) Accurately ripped
05 [115673c9] (002/839) Accurately ripped
06 [65f6b4cd] (002/826) Accurately ripped
07 [8b007da6] (002/840) Accurately ripped
08 [1372f8c6] (002/828) Accurately ripped
09 [b9fbbf20] (002/841) Accurately ripped
10 [696ec468] (002/800) Accurately ripped
Offsetted by -404:
01 [fadb7cb9] (002/832) Accurately ripped
02 [116af31e] (002/843) Accurately ripped
03 [38b2d9d4] (002/836) Accurately ripped
04 [19415a2c] (002/839) Accurately ripped
05 [93fb6ab9] (002/839) Accurately ripped
06 [e5c23818] (002/826) Accurately ripped
07 [f1b4206d] (002/840) Accurately ripped
08 [68ce2687] (002/828) Accurately ripped
09 [e07e1e14] (002/841) Accurately ripped
10 [4c8017e2] (002/800) Accurately ripped
Offsetted by -376:
01 [8006684f] (009/832) Accurately ripped
02 [553995bd] (009/843) Accurately ripped
03 [f62f5d51] (009/836) Accurately ripped
04 [e8604f97] (009/839) Accurately ripped
05 [88100df9] (009/839) Accurately ripped
06 [31ce0a89] (009/826) Accurately ripped
07 [cdd58885] (009/840) Accurately ripped
08 [e59df5b7] (009/828) Accurately ripped
09 [912d1af9] (009/841) Accurately ripped
10 [6e69d70d] (008/800) Accurately ripped
Offsetted by -341:
01 [b54d3eb4] (051/832) Accurately ripped
02 [a185f2ab] (055/843) Accurately ripped
03 [abcd6b81] (051/836) Accurately ripped
04 [b50c6b90] (051/839) Accurately ripped
05 [de0d2bf0] (054/839) Accurately ripped
06 [f7517d79] (053/826) Accurately ripped
07 [ded0e03d] (051/840) Accurately ripped
08 [4d50a91e] (054/828) Accurately ripped
09 [169d4f9d] (053/841) Accurately ripped
10 [a243e401] (051/800) Accurately ripped
Offsetted by -286:
01 [6eaad447] (052/832) Accurately ripped
02 [945d6f26] (052/843) Accurately ripped
03 [64fdc767] (052/836) Accurately ripped
04 [8e97380a] (053/839) Accurately ripped
05 [364d05b0] (051/839) Accurately ripped
06 [d79acd70] (051/826) Accurately ripped
07 [ba20f293] (052/840) Accurately ripped
08 [ef34bb0d] (052/828) Accurately ripped
09 [d15f1ff5] (052/841) Accurately ripped
10 [d1d8b0d7] (049/800) Accurately ripped
Offsetted by -53:
01 [ed728e59] (009/832) Accurately ripped
02 [b97a49f6] (009/843) Accurately ripped
03 [e97d5d13] (009/836) Accurately ripped
04 [186bd562] (009/839) Accurately ripped
05 [e5223b85] (009/839) Accurately ripped
06 [937fc54d] (009/826) Accurately ripped
07 [c8f93c24] (009/840) Accurately ripped
08 [7fef6453] (009/828) Accurately ripped
09 [a38c35bb] (009/841) Accurately ripped
10 [c1872823] (006/800) Accurately ripped
Offsetted by 8:
01 [7fda1a59] (072/832) Accurately ripped
02 [7421c32b] (073/843) Accurately ripped
03 [7f43ee58] (071/836) Accurately ripped
04 [01a75c1a] (069/839) Accurately ripped
05 [4ed0a835] (070/839) Accurately ripped
06 [50b8c92e] (071/826) Accurately ripped
07 [6b2b0576] (072/840) Accurately ripped
08 [f24d468f] (072/828) Accurately ripped
09 [6e2519bf] (072/841) Accurately ripped
10 [055736ff] (070/800) Accurately ripped
Offsetted by 39:
01 [64152aab] (033/832) Accurately ripped
02 [e7dee3c4] (032/843) Accurately ripped
03 [703f530f] (032/836) Accurately ripped
04 [4eb855b4] (034/839) Accurately ripped
05 [5990b47d] (031/839) Accurately ripped
06 [73e9a61a] (032/826) Accurately ripped
07 [0da1418e] (033/840) Accurately ripped
08 [1dd5a449] (031/828) Accurately ripped
09 [cbef0dbf] (032/841) Accurately ripped
10 [fdfc4958] (029/800) Accurately ripped
Offsetted by -614:
01 [19513111] (000/832) No match (V2 was not tested)
02 [83855353] (000/843) No match (V2 was not tested)
03 [7f88d213] (000/836) No match (V2 was not tested)
04 [50135f3f] (000/839) No match (V2 was not tested)
05 [062af6ac] (000/839) No match (V2 was not tested)
06 [23850811] (000/826) No match (V2 was not tested)
07 [1b5133a6] (000/840) No match (V2 was not tested)
08 [3b4b751f] (000/828) No match (V2 was not tested)
09 [0e21216e] (000/841) No match (V2 was not tested)
10 [f774362c] (000/800) No match (V2 was not tested)
Offsetted by -427:
01 [0faa661b] (002/832) Accurately ripped
02 [38ab1631] (002/843) Accurately ripped
03 [b6184197] (002/836) Accurately ripped
04 [78da5c6b] (002/839) Accurately ripped
05 [230e7c4d] (000/839) No match (V2 was not tested)
06 [115593d2] (002/826) Accurately ripped
07 [b6c1a19c] (002/840) Accurately ripped
08 [220d10c2] (002/828) Accurately ripped
09 [e302bfcc] (002/841) Accurately ripped
10 [cf8ab5e0] (000/800) No match (V2 was not tested)
Offsetted by 45:
01 [8af00a8e] (000/832) No match (V2 was not tested)
02 [8c8aa64d] (000/843) No match (V2 was not tested)
03 [1153f97b] (000/836) No match (V2 was not tested)
04 [54388594] (000/839) No match (V2 was not tested)
05 [1c3be95a] (000/839) No match (V2 was not tested)
06 [6be37c9c] (000/826) No match (V2 was not tested)
07 [b4f0f13b] (000/840) No match (V2 was not tested)
08 [852b3f97] (000/828) No match (V2 was not tested)
09 [ff529c68] (000/841) No match (V2 was not tested)
10 [f408a4d8] (000/800) No match (V2 was not tested)

Track Peak [ CRC32 ] [W/O NULL] [ LOG ]
-- 100,0 [9A8BA2EC] [C05A2DEB] CRC32
01 64,1 [AC241D3C] [267E5689]
02 100,0 [0CF00CF5] [C171B6F8]
03 93,0 [88DAA1E1] [D586C163]
04 89,2 [1B41D7F5] [CD550320]
05 85,1 [2272A495] [F22AAA3E]
06 99,9 [D1797C7B] [C2D3A744]
07 40,8 [4E03C925] [C33C7BBE]
08 99,8 [C74EB638] [960F76B9]
09 39,7 [A9630995] [0BA8EC07]
10 93,1 [9E44B683] [D16B824B]
[свернуть]


Последний раз редактировалось johnsilver, 04.11.2018 в 13:44.
Вверх
2 пользователя(ей) сказали cпасибо:
sergych (05.11.2018), TAIFUN (05.11.2018)
  #7
Старый 05.11.2018, 00:37
TAIFUN
Admin
Досье
 
Аватар для TAIFUN
По умолчанию Re: Pink Floyd - A Momentary Lapse Of Reason

sergych,
johnsilver, sorry, ребят.
Вчера начал поиски оптимального инструмента для анализа спектра и частотности, случайно попал на это релиз и вывод сделал исключительно на логе аудиочекера и скриншота.)
Кстати, только что глянул.. у меня "японец" очень похож по спектру, но в результате auCDtect помечает японца как CDDA.
Вероятно алгоритмы в чекерах устаревшие?
Кстати, может обсудим на досуге кто какими программами пользуется?
Нашёл такие инструменты как Lossless Audio Checker и Fakin The Funk. Пока тестирую.

Цитата: Сообщение от sergych Посмотреть сообщение
Впрочем, если считаешь, что лучше этот рип убрать, - не вопрос. Я не против

Не, Серж, я разве похож на такого человека?)
Я ж всегда за справедливость.)
Эта информация ещё больше навеяла желание выбрать и протестировать чекеры чтоб остановиться на правильном, корректном.
Кстати, а ты не пробовал этот диск прогнать через Tau Analyzer? Интересно, что этот чекер покажет. Он, в отличие от аналогичных программ, анализирует диск, а не упакованый файл. Оч интересно какой он покажет результат.
__________________
I love music
FAQ по форуму
Правила форума
Жизнь человека - это не самое главное в его жизни...


Последний раз редактировалось TAIFUN, 05.11.2018 в 18:55.
Вверх
Пользователь сказал cпасибо:
sergych (05.11.2018)
  #8
Старый 05.11.2018, 08:13
sergych
Координатор
Досье
 
Аватар для sergych
По умолчанию Re: Pink Floyd - A Momentary Lapse Of Reason

Цитата: Сообщение от TAIFUN Посмотреть сообщение
Я ж всегда за справедливость

Серж, дружище. Я абсолютно лишён амбиций и, в равной степени, спокоен и открыт критике,т.ч. всё норм
это CK 40599
,а это, упомянутый ранее, итальянец CDP 7 48068 2 ну, и ремастер 2011 года 50999 028959 2 5 из китайского Discovery
__________________
TAIFUN.Wings of Soul

Вверх
Пользователь сказал cпасибо:
TAIFUN (05.11.2018)
  #9
Старый 05.11.2018, 20:16
burnett_s
Меломан
Досье
 
Аватар для burnett_s
По умолчанию Re: Pink Floyd - A Momentary Lapse Of Reason

Hi, my 2 cents...

This is what I have, a US reissue...

Barcode: 7464 - 40599 - 2
Matrix / Runout: 1A CK40599 17 C2
Mould SID Code: IFPI 7299
Other (DADC Code): DIDP 070659
Other (Hub Stamp): P 106

CD Conclusion: CDDA
Миниатюры
Нажмите на изображение для увеличения
Название: 1.jpg
Просмотров: 16
Размер:	150.8 Кб
ID:	398   Нажмите на изображение для увеличения
Название: 2.jpg
Просмотров: 15
Размер:	91.9 Кб
ID:	399   Нажмите на изображение для увеличения
Название: 3.jpg
Просмотров: 14
Размер:	100.7 Кб
ID:	400   Нажмите на изображение для увеличения
Название: 2018-11-05_13-41-24.jpg
Просмотров: 15
Размер:	112.3 Кб
ID:	401   Нажмите на изображение для увеличения
Название: 2018-11-05_13-41-58.jpg
Просмотров: 13
Размер:	95.4 Кб
ID:	402   Нажмите на изображение для увеличения
Название: 2018-11-05_13-42-12.jpg
Просмотров: 14
Размер:	96.6 Кб
ID:	403  

Нажмите на изображение для увеличения
Название: 2018-11-05_13-42-26.jpg
Просмотров: 13
Размер:	145.1 Кб
ID:	404  

Вверх
2 пользователя(ей) сказали cпасибо:
sergych (06.11.2018), TAIFUN (05.11.2018)
  #10
Старый 05.11.2018, 23:06
TAIFUN
Admin
Досье
 
Аватар для TAIFUN
По умолчанию Re: Pink Floyd - A Momentary Lapse Of Reason

burnett_s, Hi bro!
Do you want to share this CD?
__________________
I love music
FAQ по форуму
Правила форума
Жизнь человека - это не самое главное в его жизни...

Вверх
Пользователь сказал cпасибо:
sergych (06.11.2018)
Похожие темы
Тема Автор Раздел Ответов Последнее сообщение
Биография Pink Floyd dmitriy89 Rock [FAQ] 8 27.09.2015 06:41
VA Pink Floyd Tribute Band - A Chill Out Tribute To Pink Floyd sergych Chill Out 0 06.12.2008 18:23
Live Pink Floyd - KQED "An Hour With Pink Floyd" sergych Psychedelic Rock 0 05.10.2008 10:46


Метки
pink floyd , psychedelic , rock , рок

Опции темы

Ваши права в разделе
Вы не можете создавать новые темы
Вы не можете отвечать в темах
Вы не можете прикреплять вложения
Вы не можете редактировать свои сообщения

Быстрый переход



Текущее время: 00:30. Часовой пояс GMT +3.
Powered by vBulletin® Version 3.8.10
Copyright ©2000 - 2018, vBulletin Solutions, Inc. Перевод: zCarot
© 2008 - 2018 Taifun With Song
Яндекс.Метрика