1
[Альбом] AuroraX - Evolutionary Voyage - TAIFUN With Song
TAIFUN With Song
Навигация
Вернуться   TAIFUN With Song > Music (обменник) > Chill Out
Расширенный поиск
Chill Out Relax зона. Музыка для отдыха, relax`a.

А знаете ли Вы, что...
Какой суперхит изначально не планировался к созданию и не понравился исполнительнице?
«Изначально Джеймс Кэмерон не хотел включать в «Титаник» никаких песен. Однако композитор фильма Джеймс Хорнер твёрдо решил создать полноценную вокальную версию своих инструментальных наработок и сам вышел на Селин Дион с предложением спеть «My Heart Will Go On». Певице композиция совершенно не понравилась, но потом её всё же уговорили сделать одну запись, которая была показана Кэмерону. Тот утвердил песню, причём повторных записей Селин Дион не проводили, и в саундтрек была включена та самая демо-версия. В итоге она стала одним из самых продаваемых синглов в истории музыки.»
 
Опции темы

  #1
Старый 04.11.2018, 03:29
TAIFUN
Admin
Досье
 
Аватар для TAIFUN
По умолчанию AuroraX - Evolutionary Voyage


2015 - AuroraX - Evolutionary Voyage




Исполнитель/Artist: AuroraX
Альбом/Album: Evolutionary Voyage
Год/Year: 2015
Жанр/Genre: PsyChill
Страна/Country: Канада
Рекорд-лейбл/Record label: Altar Records
Номер в каталоге/Catalogue #: ARCDA51
Формат/Format: Free Lossless Audio Codec (*.flac)
Качество/Quality: Lossless
Тип рипа/RIP Type: image+.cue


Продолжительность/Length: 01:09:09
Источник/Source: Собственный рип
Размер/Size: 451 MB

Сканы в комплекте

Треклист

1. Anima's Dream
2. Navigations
3. Project Voyager
4. Spatial Contemplations
5. Stars And Rising Tides
6. Inner
7. Tales Of The Particles
Strings – Euerpi*
8. Lifetime Satellite
[свернуть]

youtube.com

[свернуть]

EAC лог

Exact Audio Copy V1.3 from 2. September 2016

EAC extraction logfile from 11. October 2018, 23:32

AuroraX / Evolutionary Voyage

Used drive : ASUS DRW-24D5MT Adapter: 1 ID: 0

Read mode : Secure
Utilize accurate stream : Yes
Defeat audio cache : Yes
Make use of C2 pointers : No

Read offset correction : 6
Overread into Lead-In and Lead-Out : No
Fill up missing offset samples with silence : Yes
Delete leading and trailing silent blocks : No
Null samples used in CRC calculations : Yes
Used interface : Native Win32 interface for Win NT & 2000

Used output format : Internal WAV Routines
Sample format : 44.100 Hz; 16 Bit; Stereo


TOC of the extracted CD

Track | Start | Length | Start sector | End sector
---------------------------------------------------------
1 | 0:00.00 | 9:51.12 | 0 | 44336
2 | 9:51.12 | 8:28.04 | 44337 | 82440
3 | 18:19.16 | 7:24.67 | 82441 | 115807
4 | 25:44.08 | 8:17.34 | 115808 | 153116
5 | 34:01.42 | 7:49.60 | 153117 | 188351
6 | 41:51.27 | 8:50.25 | 188352 | 228126
7 | 50:41.52 | 8:40.32 | 228127 | 267158
8 | 59:22.09 | 9:47.08 | 267159 | 311191


Range status and errors

Selected range

Filename D:\Музыка\RELAX\PsyChill\AuroraX\2015 - Evolutionary Voyage\AuroraX - Evolutionary Voyage.wav

Peak level 99.7 %
Extraction speed 7.7 X
Range quality 100.0 %
Copy CRC B0C36451
Copy OK

No errors occurred


AccurateRip summary

Track 1 accurately ripped (confidence 1) [C9D661AB] (AR v2)
Track 2 accurately ripped (confidence 1) [8E5280B9] (AR v2)
Track 3 accurately ripped (confidence 1) [8A369599] (AR v2)
Track 4 accurately ripped (confidence 1) [AABFC9FB] (AR v2)
Track 5 accurately ripped (confidence 1) [E5D2D8E8] (AR v2)
Track 6 accurately ripped (confidence 1) [9E149E73] (AR v2)
Track 7 accurately ripped (confidence 1) [C4175C8B] (AR v2)
Track 8 accurately ripped (confidence 1) [C9145F3B] (AR v2)

All tracks accurately ripped

End of status report

---- CUETools DB Plugin V2.1.6

[CTDB TOCID: hh8PK9vuI0U5mJo25PDO51HvxRk-] found
Submit result: hh8PK9vuI0U5mJo25PDO51HvxRk- has been confirmed
Track | CTDB Status
1 | (2/2) Accurately ripped
2 | (2/2) Accurately ripped
3 | (2/2) Accurately ripped
4 | (2/2) Accurately ripped
5 | (2/2) Accurately ripped
6 | (2/2) Accurately ripped
7 | (2/2) Accurately ripped
8 | (2/2) Accurately ripped


==== Log checksum BF30A52AFB5BBAC0C207150E8093258EF16E9590DA3E7A84BE199787CF6A4D57 ====
[свернуть]

Файл CUE

REM GENRE PsyChill
REM DATE 2015
REM DISCID 56103508
REM COMMENT "ExactAudioCopy v1.3"
PERFORMER "AuroraX"
TITLE "Evolutionary Voyage"
REM COMPOSER ""
FILE "AuroraX - Evolutionary Voyage.flac" WAVE
TRACK 01 AUDIO
TITLE "Anima's Dream"
PERFORMER "AuroraX"
REM COMPOSER ""
FLAGS DCP
INDEX 01 00:00:00
TRACK 02 AUDIO
TITLE "Navigations"
PERFORMER "AuroraX"
REM COMPOSER ""
FLAGS DCP
INDEX 01 09:51:12
TRACK 03 AUDIO
TITLE "Project Voyager"
PERFORMER "AuroraX"
REM COMPOSER ""
FLAGS DCP
INDEX 01 18:19:16
TRACK 04 AUDIO
TITLE "Spatial Contemplations"
PERFORMER "AuroraX"
REM COMPOSER ""
FLAGS DCP
INDEX 01 25:44:08
TRACK 05 AUDIO
TITLE "Stars And Rising Tides"
PERFORMER "AuroraX"
REM COMPOSER ""
FLAGS DCP
INDEX 01 34:01:42
TRACK 06 AUDIO
TITLE "Inner"
PERFORMER "AuroraX"
REM COMPOSER ""
FLAGS DCP
INDEX 01 41:51:27
TRACK 07 AUDIO
TITLE "Tales Of The Particles (Strings By E.U.E.R.P.I.)"
PERFORMER "AuroraX"
REM COMPOSER ""
FLAGS DCP
INDEX 01 50:41:52
TRACK 08 AUDIO
TITLE "Lifetime Satellite"
PERFORMER "AuroraX"
REM COMPOSER ""
FLAGS DCP
INDEX 01 59:22:09
[свернуть]

Лог проверки качества

AUDIOCHECKER v2.0 beta (build 457) - by Dester - [Ссылки могут видеть только зарегистрированные и активированные пользователи.]
[Only registered and activated users can see links.]
~~~~~~~~~~~~~~~~~~~~~~~~~~~~~~~~~~
-=== DO NOT EDIT THIS FILE! ===-

Path: ...\2015 - Evolutionary Voyage

1 -=- AuroraX - Evolutionary Voyage.flac -=- CDDA (99%)

125639348
[свернуть]

Спектр частот

[свернуть]

Скачать AuroraX - Evolutionary Voyage

[Ссылки могут видеть только зарегистрированные и активированные пользователи.]
[Only registered and activated users can see links.]
[свернуть]

Контрольная сумма (хеш-сумма) архива

MD5: 61a6d9cd3d1f22101ee9bd9c966ff545
[свернуть]
My opinion of release: 9/10

Release info RInfo

Companies, etc.

Phonographic Copyright (p) – Altar Records
Copyright (c) – Altar Records
Mastered At – Altar Records Studios
Made By – Disc Makers – MZI1486

Credits

Artwork, Design – Todor Georgiev
Mastered By – DJ Zen
Written-By, Producer – Desislav Georgiev

Notes
Limited Edition 500 copies.

Mastered @ Altar Records

Track lengths not listed on the release.

Tracks 2 and 3 were inverted onto the back CD cover and CD ring.
Barcode and Other Identifiers

Barcode (Print): 9 78091 49680 7
Barcode (String): 978091496807
Matrix / Runout: MZI1486 DISC MAKERS
Mastering SID Code: IFPI LZ74




Последний раз редактировалось TAIFUN, 04.11.2018 в 03:39.
Вверх
2 пользователя(ей) сказали cпасибо:
sergych (04.11.2018), swint68 (06.11.2018)
  #2
Старый 05.11.2018, 22:35
TAIFUN
Admin
Досье
 
Аватар для TAIFUN
По умолчанию 2015 - AuroraX - Evolutionary Voyage [24/48kHz] [WEB]


2015 - 2015 - AuroraX - Evolutionary Voyage [24/48kHz] [WEB]




Исполнитель/Artist: AuroraX
Альбом/Album: Evolutionary Voyage
Год/Year: 2015
Жанр/Genre: PsyChill
Страна/Country: Канада
Рекорд-лейбл/Record label: Altar Records
Номер в каталоге/Catalogue #: ARCDA51
Формат/Format: Free Lossless Audio Codec (*.flac)
Качество/Quality: Lossless
Тип рипа/RIP Type: tracks
Продолжительность/Length: 01:17:47
Источник/Source: WEB релиз бонусом при покупке CD
Размер/Size: 911 MB


Треклист

1. Anima's Dream
2. Navigations
3. Project Voyager
4. Spatial Contemplations
5. Stars And Rising Tides
6. Inner
7. Tales Of The Particles
Strings – Euerpi*
8. Lifetime Satellite
9. Human Navigations (Feat. EUERPI) (Bonus Track)
[свернуть]

Скачать 2015 - AuroraX - Evolutionary Voyage [24/48kHz] [WEB]

[Ссылки могут видеть только зарегистрированные и активированные пользователи.]
[Only registered and activated users can see links.]
[свернуть]

Контрольная сумма (хеш-сумма) архива

MD5: 3f5cd5666fe5dad450c1b9bd3f6fd656
[свернуть]
My opinion of release: 9/10

Release info RInfo

Отличие от CD:
- битность 24
- частота дискретизации 48 kHz
- бонус-трек - Human Navigations (Feat. EUERPI) (Bonus Track)


Последний раз редактировалось TAIFUN, 10.11.2018 в 00:04.
Вверх
2 пользователя(ей) сказали cпасибо:
sergych (07.11.2018), swint68 (06.11.2018)
Похожие темы
Тема Автор Раздел Ответов Последнее сообщение
Микс AuroraX - The Emotions of Nature TAIFUN Chill Out 1 16.09.2018 21:43
Релиз Pony Pony Run Run - Voyage Voyage PUPOKIN Зарубежная Поп-Музыка 0 08.06.2016 14:43
Релиз Killer Bee - Evolutionary Children PUPOKIN Hard Rock 0 14.10.2013 09:49
Релиз Celtic Thunder - Voyage PUPOKIN Этническая музыка 0 29.02.2012 10:01
Релиз The Sound Of Arrows - Voyage PUPOKIN Зарубежная Поп-Музыка 0 20.11.2011 09:58


Метки
2015 , aurorax , evolutionary voyage , psychill

Опции темы

Ваши права в разделе
Вы не можете создавать новые темы
Вы не можете отвечать в темах
Вы не можете прикреплять вложения
Вы не можете редактировать свои сообщения

Быстрый переход



Текущее время: 00:16. Часовой пояс GMT +3.
Powered by vBulletin® Version 3.8.10
Copyright ©2000 - 2019, vBulletin Solutions, Inc. Перевод: zCarot
© 2008 - 2019 Taifun With Song
Яндекс.Метрика