TAIFUN With Song
Навигация
Вернуться   TAIFUN With Song > Music (обменник) > Rock > Blues Rock
Расширенный поиск
Blues Rock К концу сороковых годов прошлого столетия в блюзе окончательно обосновалась электрогитара. Трудно сказать, что подтолкнуло многих блюзменов перейти с привычной акустической гитары на электрическую, но блюз с тех пор очень сильно изменился.

А знаете ли Вы, что...
Какой русский поп-певец имеет самую большую армию поклонников?
«Витас — самый популярный современный русский исполнитель в Китае, что ставит его на первое место среди всех русских исполнителей по общему числу поклонников в мире.»
 
Опции темы

  #1
Старый 20.10.2018, 14:54
sergych
Координатор
Досье
 
Аватар для sergych
Релиз Joe Cocker - The Life Of A Man. The Ultimate Hits 1968-2013 {Essential Edition}


2016 - Joe Cocker - The Life Of A Man. The Ultimate Hits 1968-2013 {Essential Edition}




Исполнитель/Artist: Joe Cocker
Альбом/Album: The Life Of A Man. The Ultimate Hits 1968-2013 {Essential Edition}
Год/Year: 2016
Жанр/Genre: Blues rock, rock
Страна/Country: Россия
Рекорд-лейбл/Record label: Sony Music
Номер в каталоге/Catalogue #: 0889854358723
Формат/Format: Free Lossless Audio Codec (*.flac)
Качество/Quality: Lossless
Тип рипа/RIP Type: image+.cue
Продолжительность/Length: 01:15:13
Источник/Source: Собственный рип
Размер/Size: 555 MB

Сканы в комплекте

Треклист

01. With A Little Help From My Friends [0:05:08.23]
02. Up Where We Belong [0:03:52.50]
03. Many Rivers To Cross [0:03:45.01]
04. You Are So Beautiful [0:02:42.14]
05. You Can Leave Your Hat On [0:04:14.68]
06. Delta Lady [0:02:50.74]
07. The Letter (Live) [0:04:16.01]
08. Cry Me A River (Live) [0:03:57.48]
09. Unchain My Heart [0:05:07.13]
10. Woman To Woman [0:04:27.71]
11. The Simple Things [0:04:49.67]
12. Summer In The City [0:03:49.43]
13. Fire It Up [0:03:53.52]
14. Feelin' Alright [0:04:10.03]
15. Come Together [0:04:22.71]
16. When The Night Comes [0:04:46.60]
17. I Come In Peace [0:04:19.24]
18. Performance [0:04:38.13]
[свернуть]

youtube.com

[свернуть]

EAC лог

Exact Audio Copy V1.3 from 2. September 2016

EAC extraction logfile from 16. October 2018, 9:57

Joe Cocker / The Life Of A Man. The Ultimate Hits 1968-2013 (Essential Edition)

Used drive : ATAPI iHAS124 D Adapter: 0 ID: 2

Read mode : Secure
Utilize accurate stream : Yes
Defeat audio cache : Yes
Make use of C2 pointers : No

Read offset correction : 6
Overread into Lead-In and Lead-Out : No
Fill up missing offset samples with silence : Yes
Delete leading and trailing silent blocks : No
Null samples used in CRC calculations : Yes
Used interface : Installed external ASPI interface

Used output format : User Defined Encoder
Selected bitrate : 1024 kBit/s
Quality : High
Add ID3 tag : No
Command line compressor : C:\Program Files (x86)\Exact Audio Copy\Flac\flac.exe
Additional command line options : -6 -V -T "ARTIST=%artist%" -T "TITLE=%title%" -T "ALBUM=%albumtitle%" -T "DATE=%year%" -T "TRACKNUMBER=%tracknr%" -T "GENRE=%genre%" -T "COMMENT=%comment%" -T "BAND=%albuminterpret%" -T "ALBUMARTIST=%albuminterpret%" -T "COMPOSER=%composer%" %haslyrics%--tag-from-file=LYRICS="%lyricsfile%"%haslyrics% -T "DISCNUMBER=%cdnumber%" -T "TOTALDISCS=%totalcds%" -T "TOTALTRACKS=%numtracks%" %hascover%--picture="%coverfile%"%hascover% %source% -o %dest%


TOC of the extracted CD

Track | Start | Length | Start sector | End sector
---------------------------------------------------------
1 | 0:00.00 | 5:08.23 | 0 | 23122
2 | 5:08.23 | 3:52.50 | 23123 | 40572
3 | 9:00.73 | 3:45.01 | 40573 | 57448
4 | 12:45.74 | 2:42.14 | 57449 | 69612
5 | 15:28.13 | 4:14.68 | 69613 | 88730
6 | 19:43.06 | 2:50.74 | 88731 | 101554
7 | 22:34.05 | 4:16.01 | 101555 | 120755
8 | 26:50.06 | 3:57.48 | 120756 | 138578
9 | 30:47.54 | 5:07.13 | 138579 | 161616
10 | 35:54.67 | 4:27.71 | 161617 | 181712
11 | 40:22.63 | 4:49.67 | 181713 | 203454
12 | 45:12.55 | 3:49.43 | 203455 | 220672
13 | 49:02.23 | 3:53.52 | 220673 | 238199
14 | 52:56.00 | 4:10.03 | 238200 | 256952
15 | 57:06.03 | 4:22.71 | 256953 | 276673
16 | 61:28.74 | 4:46.60 | 276674 | 298183
17 | 66:15.59 | 4:19.24 | 298184 | 317632
18 | 70:35.08 | 4:38.13 | 317633 | 338495


Range status and errors

Selected range

Filename C:\mm\Joe Cocker\2016 - The Life Of A Man. The Ultimate Hits 1968-2013 (Essential Edition) [0889854358723]\Joe Cocker - The Life Of A Man. The Ultimate Hits 1968-2013 (Essential Edition).wav

Peak level 99.7 %
Extraction speed 1.4 X
Range quality 100.0 %
Test CRC 0046C5DD
Copy CRC 0046C5DD
Copy OK

No errors occurred

End of status report
[свернуть]

Файл CUE

REM GENRE Pop
REM DATE 2016
REM DISCID 0B11A112
REM COMMENT "ExactAudioCopy v1.3"
PERFORMER "Joe Cocker"
TITLE "The Life Of A Man. The Ultimate Hits 1968-2013 (Essential Edition)"
REM COMPOSER ""
FILE "Joe Cocker - The Life Of A Man. The Ultimate Hits 1968-2013 (Essential Edition).flac" WAVE
TRACK 01 AUDIO
TITLE "With A Little Help From My Friends"
PERFORMER "Joe Cocker"
REM COMPOSER ""
INDEX 01 00:00:00
TRACK 02 AUDIO
TITLE "Up Where We Belong"
PERFORMER "Joe Cocker"
REM COMPOSER ""
INDEX 00 05:08:04
INDEX 01 05:08:23
TRACK 03 AUDIO
TITLE "Many Rivers To Cross"
PERFORMER "Joe Cocker"
REM COMPOSER ""
INDEX 00 09:00:24
INDEX 01 09:00:73
TRACK 04 AUDIO
TITLE "You Are So Beautiful"
PERFORMER "Joe Cocker"
REM COMPOSER ""
INDEX 00 12:44:11
INDEX 01 12:45:74
TRACK 05 AUDIO
TITLE "You Can Leave Your Hat On"
PERFORMER "Joe Cocker"
REM COMPOSER ""
INDEX 00 15:27:31
INDEX 01 15:28:13
TRACK 06 AUDIO
TITLE "Delta Lady"
PERFORMER "Joe Cocker"
REM COMPOSER ""
INDEX 00 19:42:17
INDEX 01 19:43:06
TRACK 07 AUDIO
TITLE "The Letter (Live)"
PERFORMER "Joe Cocker"
REM COMPOSER ""
INDEX 00 22:34:02
INDEX 01 22:34:05
TRACK 08 AUDIO
TITLE "Cry Me A River (Live)"
PERFORMER "Joe Cocker"
REM COMPOSER ""
INDEX 00 26:49:08
INDEX 01 26:50:06
TRACK 09 AUDIO
TITLE "Unchain My Heart"
PERFORMER "Joe Cocker"
REM COMPOSER ""
INDEX 00 30:46:48
INDEX 01 30:47:54
TRACK 10 AUDIO
TITLE "Woman To Woman"
PERFORMER "Joe Cocker"
REM COMPOSER ""
INDEX 00 35:54:49
INDEX 01 35:54:67
TRACK 11 AUDIO
TITLE "The Simple Things"
PERFORMER "Joe Cocker"
REM COMPOSER ""
INDEX 00 40:22:49
INDEX 01 40:22:63
TRACK 12 AUDIO
TITLE "Summer In The City"
PERFORMER "Joe Cocker"
REM COMPOSER ""
INDEX 00 45:12:12
INDEX 01 45:12:55
TRACK 13 AUDIO
TITLE "Fire It Up"
PERFORMER "Joe Cocker"
REM COMPOSER ""
INDEX 00 49:01:31
INDEX 01 49:02:23
TRACK 14 AUDIO
TITLE "Feelin' Alright"
PERFORMER "Joe Cocker"
REM COMPOSER ""
INDEX 00 52:54:10
INDEX 01 52:56:00
TRACK 15 AUDIO
TITLE "Come Together"
PERFORMER "Joe Cocker"
REM COMPOSER ""
INDEX 00 57:05:41
INDEX 01 57:06:03
TRACK 16 AUDIO
TITLE "When The Night Comes"
PERFORMER "Joe Cocker"
REM COMPOSER ""
INDEX 01 61:28:74
TRACK 17 AUDIO
TITLE "I Come In Peace"
PERFORMER "Joe Cocker"
REM COMPOSER ""
INDEX 00 66:14:54
INDEX 01 66:15:59
TRACK 18 AUDIO
TITLE "Performance"
PERFORMER "Joe Cocker"
REM COMPOSER ""
INDEX 00 70:34:08
INDEX 01 70:35:08
[свернуть]

Лог проверки качества

AUDIOCHECKER v2.0 beta (build 457) - by Dester -
~~~~~~~~~~~~~~~~~~~~~~~~~~~~~~~~~~
-=== НЕ РЕДАКТИРУЙТЕ ЭТОТ ФАЙЛ! ===-

Путь: ...\2016 - The Life Of A Man. The Ultimate Hits 1968-2013 (Essential Edition) [0889854358723]

1 -=- Joe Cocker - The Life Of A Man. The Ultimate Hits 1968-2013 (Essential Edition).flac -=- CDDA (100%)

201137188
[свернуть]

Спектр частот

[свернуть]

Скачать Joe Cocker - The Life Of A Man. The Ultimate Hits 1968-2013 {Essential Edition}



password: sergych
[свернуть]

Контрольная сумма (хеш-сумма) архива

MD5: b40bf7c67d0fb4b03c88a25d7e529458
[свернуть]
My opinion of release: 10/10

Release info RInfo

"Выжимка" лучшего из 2-х дискового сборника "The Life of a Man. The Ultimate Hits 1968-2013" 2015 года
__________________
TAIFUN.Wings of Soul

Вверх
3 пользователя(ей) сказали cпасибо:
Показать список поблагодаривших
Похожие темы
Тема Автор Раздел Ответов Последнее сообщение
Сборник Joe Cocker - The Essential Joe Cocker sergych Blues Rock 0 09.04.2015 19:48
Сборник Joe Cocker - Joe Cocker's Greatest Hits sergych Blues Rock 0 15.04.2014 19:31
Сборник Joe Cocker - The Ultimate Collection. 1968-2003 sergych Blues Rock 0 31.12.2013 18:14
Сборник Joe Cocker - Greatest Hits aheron Blues Rock 0 20.05.2013 19:21
VA DMC Essential Hits 73 PUPOKIN Dance 0 26.04.2011 09:50


Метки
2016 , blues rock , joe cocker , rock , the life of a man. the ultimate hits 1968-2013 {essential edition}

Опции темы

Ваши права в разделе
Вы не можете создавать новые темы
Вы не можете отвечать в темах
Вы не можете прикреплять вложения
Вы не можете редактировать свои сообщения

Быстрый переход



Текущее время: 00:31. Часовой пояс GMT +3.
Powered by vBulletin® Version 3.8.10
Copyright ©2000 - 2018, vBulletin Solutions, Inc. Перевод: zCarot
© 2008 - 2018 Taifun With Song
Яндекс.Метрика