TAIFUN With Song
Навигация
Вернуться   TAIFUN With Song > Music (обменник) > Rock > Pop Rock
Расширенный поиск
Pop Rock Поп-рок — жанр музыки, объединяющий элементы поп-музыки и рок-музыки. Песни характеризуются простой структурой, запоминающимися мелодиями, повторением музыкальных фраз (от попа), использованием в качестве основных инструментов электрогитар и ударных и агрессивным настроением (от рока).

А знаете ли Вы, что...
Влияние скрипки на пауков!
«Если заиграть перед пауками на скрипке, то они выйдут из своих укрытий!»
 
Опции темы

  #1
Старый 21.05.2013, 21:21
aheron
Релизёр
Досье
 
Аватар для aheron
По умолчанию Alison Moyet - The Minutes


Alison Moyet - The Minutes (2013)




Исполнитель/Artist: Alison Moyet
Альбом/Album: The Minutes
Год/Year: 2013
Жанр/Genre: Pop/Rock
Рекорд-лейбл/Record label: Motley Music Ltd./Sanctuary Records Group Ltd.. Made in UK.
Каталог/Catalog #: COOKCD585
Формат/Format: Free Lossless Audio Codec (*.flac)
Качество/Quality: Lossless
Тип рипа/RIP Type: image+.cue


Продолжительность/Length: 00:40:47
Источник/Source: Из интернета
Размер/Size: 507 MB

Сканы в комплекте

Треклист

01. Alison Moyet - Horizon Flame [3:39]
02. Alison Moyet - Changeling [2:58]
03. Alison Moyet - When I Was Your Girl [3:39]
04. Alison Moyet - Apple Kisses [3:32]
05. Alison Moyet - Right As Rain [3:08]
06. Alison Moyet - Remind Yourself [3:48]
07. Alison Moyet - Love Reign Supreme [3:46]
08. Alison Moyet - A Place To Stay [4:03]
09. Alison Moyet - Filigree [3:45]
10. Alison Moyet - All Signs Of Life [3:55]
11. Alison Moyet - Rung By The Tide [4:35]
----------------------------------------
Total time: [40:47.813]
[свернуть]

youtube.com

[свернуть]

EAC лог

Exact Audio Copy V1.0 beta 3 from 29. August 2011

EAC extraction logfile from 21. May 2013, 1:02

Alison Moyet / The Minutes

Used drive : PIONEER DVD-RW DVR-112D Adapter: 2 ID: 1

Read mode : Secure
Utilize accurate stream : Yes
Defeat audio cache : Yes
Make use of C2 pointers : No

Read offset correction : 48
Overread into Lead-In and Lead-Out : No
Fill up missing offset samples with silence : Yes
Delete leading and trailing silent blocks : No
Null samples used in CRC calculations : Yes
Used interface : Installed external ASPI interface

Used output format : User Defined Encoder
Selected bitrate : 1024 kBit/s
Quality : High
Add ID3 tag : No
Command line compressor : C:\Program Files (x86)\Exact Audio Copy\Flac\flac.exe
Additional command line options : -8 -V -T "Date=%year%" -T "Genre=%genre%" -T "COMMENT=ripped by bvstudio®" %source%

TOC of the extracted CD

Track | Start | Length | Start sector | End sector
---------------------------------------------------------
1 | 0:00.00 | 3:39.15 | 0 | 16439
2 | 3:39.15 | 2:57.64 | 16440 | 29778
3 | 6:37.04 | 3:39.20 | 29779 | 46223
4 | 10:16.24 | 3:32.27 | 46224 | 62150
5 | 13:48.51 | 3:07.44 | 62151 | 76219
6 | 16:56.20 | 3:48.09 | 76220 | 93328
7 | 20:44.29 | 3:45.40 | 93329 | 110243
8 | 24:29.69 | 4:03.19 | 110244 | 128487
9 | 28:33.13 | 3:44.53 | 128488 | 145340
10 | 32:17.66 | 3:54.44 | 145341 | 162934
11 | 36:12.35 | 4:35.26 | 162935 | 183585

Range status and errors

Selected range

Filename F:\LOSSLESS UPLOADS\Alison Moyet\2013 - The Minutes\Alison Moyet - The Minutes.wav

Peak level 97.9 %
Extraction speed 6.5 X
Range quality 99.9 %
Test CRC 457C1F99
Copy CRC 457C1F99
Copy OK

No errors occurred

AccurateRip summary

Track 1 not present in database
Track 2 not present in database
Track 3 not present in database
Track 4 not present in database
Track 5 not present in database
Track 6 not present in database
Track 7 not present in database
Track 8 not present in database
Track 9 not present in database
Track 10 not present in database
Track 11 not present in database

None of the tracks are present in the AccurateRip database

End of status report

---- CUETools DB Plugin V2.1.5

[CTDB TOCID: GBRwSuvA7R6XRohMz2g1LknZj0c-] found
Submit result: GBRwSuvA7R6XRohMz2g1LknZj0c- has been confirmed
Track | CTDB Status
1 | (9/9) Accurately ripped
2 | (9/9) Accurately ripped
3 | (9/9) Accurately ripped
4 | (9/9) Accurately ripped
5 | (9/9) Accurately ripped
6 | (9/9) Accurately ripped
7 | (9/9) Accurately ripped
8 | (9/9) Accurately ripped
9 | (9/9) Accurately ripped
10 | (9/9) Accurately ripped
11 | (9/9) Accurately ripped

==== Log checksum 16CD01FFEB592A8B3B717D9328F87C994B856D7BF6A9101023 0E713A7F5D09C1 ====
[свернуть]

Лог проверки качества

-----------------------

DON'T MODIFY THIS FILE

-----------------------

PERFORMER: auCDtect Task Manager, ver. 1.6.0 RC1 build 1.6.0.1
Copyright (c) 2008-2010 y-soft. All rights reserved


ANALYZER: auCDtect: CD records authenticity detector, version 0.8.2
Copyright (c) 2004 Oleg Berngardt. All rights reserved.
Copyright (c) 2004 Alexander Djourik. All rights reserved.


FILE: Alison Moyet - The Minutes.flac
Size: 283311899 Hash: A6DCD1D428E204F8C9B9983F7AA9ECDF Accuracy: -m0
Conclusion: CDDA 100%
Signature: 62C6D935543FC52990BBD8CE31CD8A8E2CD59FD5
[свернуть]

Спектр частот

[свернуть]

Скачать Alison Moyet - The Minutes

Яндекс.Диск
[свернуть]

Вверх
Пользователь сказал cпасибо:
sergych (22.05.2013)
  #2
Старый 03.11.2018, 08:02
sergych
Координатор
Досье
 
Аватар для sergych
Релиз Re: Alison Moyet - The Minutes


2013 - Alison Moyet - The Minutes




Исполнитель/Artist: Alison Moyet
Альбом/Album: The Minutes
Год/Year: 2013
Жанр/Genre: Synthpop, pop rock
Страна/Country: Россия
Рекорд-лейбл/Record label: Soyuz Music
Номер в каталоге/Catalogue #: COOKCD585
Формат/Format: Free Lossless Audio Codec (*.flac)
Качество/Quality: Lossless
Тип рипа/RIP Type: image+.cue
Продолжительность/Length: 00:40:48
Источник/Source: Собственный рип
Размер/Size: 305.7 MB

Сканы в комплекте

Треклист

01. Horizon Flame [0:03:39.15]
02. Changeling [0:02:57.64]
03. When I Was Your Girl [0:03:39.20]
04. Apple Kisses [0:03:32.28]
05. Right as Rain [0:03:07.44]
06. Remind Yourself [0:03:48.09]
07. Love Reign Supreme [0:03:45.40]
08. A Place to Stay [0:04:03.19]
09. Filigree [0:03:44.53]
10. All Signs of Life [0:03:54.44]
11. Rung by the Tide [0:04:35.27]
[свернуть]

youtube.com

[свернуть]

Исполнители/Performers

Alison Moyet – vocals
Chris Elms – engineer, programming, sound design (all tracks); mixing (all tracks except "A Place to Stay")
Andy Page – mixing ("Right As Rain", "A Place to Stay"); programming, sound design ("A Place to Stay")
Guy Sigsworth – keyboards, production, synthesisers, samples
[свернуть]

EAC лог

Exact Audio Copy V1.3 from 2. September 2016

EAC extraction logfile from 16. October 2018, 10:51

Alison Moyet / The Minutes

Used drive : PIONEER DVD-RW DVR-220L Adapter: 1 ID: 0

Read mode : Secure
Utilize accurate stream : Yes
Defeat audio cache : Yes
Make use of C2 pointers : No

Read offset correction : 6
Overread into Lead-In and Lead-Out : No
Fill up missing offset samples with silence : Yes
Delete leading and trailing silent blocks : No
Null samples used in CRC calculations : Yes
Used interface : Installed external ASPI interface

Used output format : User Defined Encoder
Selected bitrate : 1024 kBit/s
Quality : High
Add ID3 tag : No
Command line compressor : C:\Program Files (x86)\Exact Audio Copy\Flac\flac.exe
Additional command line options : -6 -V -T "ARTIST=%artist%" -T "TITLE=%title%" -T "ALBUM=%albumtitle%" -T "DATE=%year%" -T "TRACKNUMBER=%tracknr%" -T "GENRE=%genre%" -T "COMMENT=%comment%" -T "BAND=%albuminterpret%" -T "ALBUMARTIST=%albuminterpret%" -T "COMPOSER=%composer%" %haslyrics%--tag-from-file=LYRICS="%lyricsfile%"%haslyrics% -T "DISCNUMBER=%cdnumber%" -T "TOTALDISCS=%totalcds%" -T "TOTALTRACKS=%numtracks%" %hascover%--picture="%coverfile%"%hascover% %source% -o %dest%


TOC of the extracted CD

Track | Start | Length | Start sector | End sector
---------------------------------------------------------
1 | 0:00.00 | 3:39.15 | 0 | 16439
2 | 3:39.15 | 2:57.64 | 16440 | 29778
3 | 6:37.04 | 3:39.20 | 29779 | 46223
4 | 10:16.24 | 3:32.28 | 46224 | 62151
5 | 13:48.52 | 3:07.44 | 62152 | 76220
6 | 16:56.21 | 3:48.09 | 76221 | 93329
7 | 20:44.30 | 3:45.40 | 93330 | 110244
8 | 24:29.70 | 4:03.19 | 110245 | 128488
9 | 28:33.14 | 3:44.53 | 128489 | 145341
10 | 32:17.67 | 3:54.44 | 145342 | 162935
11 | 36:12.36 | 4:35.27 | 162936 | 183587


Range status and errors

Selected range

Filename C:\mm\Alison Moyet\2013 - The Minutes [COOKCD585]\Alison Moyet - The Minutes.wav

Peak level 97.9 %
Extraction speed 6.5 X
Range quality 99.9 %
Test CRC 47696A0C
Copy CRC 47696A0C
Copy OK

No errors occurred


AccurateRip summary

Track 1 not present in database
Track 2 not present in database
Track 3 not present in database
Track 4 not present in database
Track 5 not present in database
Track 6 not present in database
Track 7 not present in database
Track 8 not present in database
Track 9 not present in database
Track 10 not present in database
Track 11 not present in database

None of the tracks are present in the AccurateRip database

End of status report
[свернуть]

Файл CUE

REM GENRE Pop
REM DATE 2013
REM DISCID 8C098F0B
REM COMMENT "ExactAudioCopy v1.3"
PERFORMER "Alison Moyet"
TITLE "The Minutes"
REM COMPOSER ""
FILE "Alison Moyet - The Minutes.flac" WAVE
TRACK 01 AUDIO
TITLE "Horizon Flame"
PERFORMER "Alison Moyet"
REM COMPOSER ""
FLAGS DCP
INDEX 01 00:00:00
TRACK 02 AUDIO
TITLE "Changeling"
PERFORMER "Alison Moyet"
REM COMPOSER ""
FLAGS DCP
INDEX 01 03:39:15
TRACK 03 AUDIO
TITLE "When I Was Your Girl"
PERFORMER "Alison Moyet"
REM COMPOSER ""
FLAGS DCP
INDEX 01 06:37:04
TRACK 04 AUDIO
TITLE "Apple Kisses"
PERFORMER "Alison Moyet"
REM COMPOSER ""
FLAGS DCP
INDEX 01 10:16:24
TRACK 05 AUDIO
TITLE "Right as Rain"
PERFORMER "Alison Moyet"
REM COMPOSER ""
FLAGS DCP
INDEX 01 13:48:52
TRACK 06 AUDIO
TITLE "Remind Yourself"
PERFORMER "Alison Moyet"
REM COMPOSER ""
FLAGS DCP
INDEX 01 16:56:21
TRACK 07 AUDIO
TITLE "Love Reign Supreme"
PERFORMER "Alison Moyet"
REM COMPOSER ""
FLAGS DCP
INDEX 01 20:44:30
TRACK 08 AUDIO
TITLE "A Place to Stay"
PERFORMER "Alison Moyet"
REM COMPOSER ""
FLAGS DCP
INDEX 01 24:29:70
TRACK 09 AUDIO
TITLE "Filigree"
PERFORMER "Alison Moyet"
REM COMPOSER ""
FLAGS DCP
INDEX 01 28:33:14
TRACK 10 AUDIO
TITLE "All Signs of Life"
PERFORMER "Alison Moyet"
REM COMPOSER ""
FLAGS DCP
INDEX 01 32:17:67
TRACK 11 AUDIO
TITLE "Rung by the Tide"
PERFORMER "Alison Moyet"
REM COMPOSER ""
FLAGS DCP
INDEX 01 36:12:36
[свернуть]

Лог проверки качества

AUDIOCHECKER v2.0 beta (build 457) - by Dester -
~~~~~~~~~~~~~~~~~~~~~~~~~~~~~~~~~~
-=== НЕ РЕДАКТИРУЙТЕ ЭТОТ ФАЙЛ! ===-

Путь: ...\2013 - The Minutes [COOKCD585]

1 -=- Alison Moyet - The Minutes.flac -=- CDDA (100%)

192473476
[свернуть]

Спектр частот

[свернуть]

Скачать Alison Moyet - The Minutes



password: sergych
[свернуть]

Контрольная сумма (хеш-сумма) архива

MD5: 9cab4c917bc6147645a8c1209687d628
[свернуть]
My opinion of release: 9/10
__________________
TAIFUN.Wings of Soul


Последний раз редактировалось sergych, 04.11.2018 в 10:28. Причина: заменил ссылку
Вверх
3 пользователя(ей) сказали cпасибо:
Показать список поблагодаривших
  #3
Старый 03.11.2018, 08:52
johnsilver
Меломан
Досье
 
Аватар для johnsilver
По умолчанию Re: Alison Moyet - The Minutes

Однако FLAC в архиве не обнаружен, только mp3.

Вверх
Пользователь сказал cпасибо:
sergych (04.11.2018)
  #4
Старый 04.11.2018, 10:30
sergych
Координатор
Досье
 
Аватар для sergych
По умолчанию Re: Alison Moyet - The Minutes

johnsilver, мой косяк, не ту ссылку запостил
Мои извинения. Исправил линк.
__________________
TAIFUN.Wings of Soul

Вверх
2 пользователя(ей) сказали cпасибо:
johnsilver (04.11.2018), TAIFUN (04.11.2018)
Похожие темы
Тема Автор Раздел Ответов Последнее сообщение
Альбом Alison Moyet - Hometime aheron Pop Rock 0 17.05.2013 08:21
Альбом Alison Moyet - Essex aheron Pop Rock 0 17.05.2013 08:13
Альбом Alison Moyet - Hoodoo aheron Pop Rock 0 17.05.2013 06:03
Alison Marks - Yellow Cherry DarkDan Techno 0 25.05.2008 11:01
44 минуты / 44 Minutes: The North Hollywood Shoot-Out dmitriy89 Боевики/Детективы 0 14.05.2008 20:06


Метки
2013 , alison moyet , pop/rock , the minutes

Опции темы

Ваши права в разделе
Вы не можете создавать новые темы
Вы не можете отвечать в темах
Вы не можете прикреплять вложения
Вы не можете редактировать свои сообщения

Быстрый переход



Текущее время: 00:30. Часовой пояс GMT +3.
Powered by vBulletin® Version 3.8.10
Copyright ©2000 - 2018, vBulletin Solutions, Inc. Перевод: zCarot
© 2008 - 2018 Taifun With Song
Яндекс.Метрика