TAIFUN With Song
Folk (народная) Традиционная музыка отдельно взятого народа или культуры. Она несёт в себе частичку самобытности народа, отражает его ментальность.

А знаете ли Вы, что...
Какой император наказывал офицеров прослушиванием оперы?
«Император Николай I не любил музыку и в качестве наказания для офицеров предоставлял им выбор между гауптвахтой и прослушиванием опер Глинки.»
 
Опции темы

  #1
Старый 13.09.2017, 00:34
sergych
Координатор
Досье
 
Аватар для sergych
Релиз Ana Moura - Para Além Da Saudade


2007 - Ana Moura - Para Além Da Saudade




Исполнитель/Artist: Ana Moura
Альбом/Album: Para Além Da Saudade
Год/Year: 2007
Жанр/Genre: Fado
Страна/Country: Германия
Рекорд-лейбл/Record label: World Village
Номер в каталоге/Catalogue #: 468072
Формат/Format: Free Lossless Audio Codec (*.flac)
Качество/Quality: Lossless
Тип рипа/RIP Type: image+.cue
Продолжительность/Length: 00:47:02
Источник/Source: Собственный рип
Размер/Size: 378.6 MB

Сканы в комплекте

Треклист

01. Os Búzios [0:03:36.12]
02. E Viemos Nascidos Do Mar [0:03:04.34]
03. A Voz Que Conta A Nossa História [0:03:14.41]
04. Águas Do Sul [0:02:33.71]
05. O Fado Da Procura [0:01:44.74]
06. Rosa Cor De Rosa [0:02:29.61]
07. Primeira Vez [0:03:23.45]
08. Não Fui Eu [0:03:27.06]
09. Mapa Do Coração [0:02:16.28]
10. Aguarda-te Ao Chegar [0:03:22.16]
11. Até Ao Fim Do Fim [0:03:53.16]
12. Fado Das Horas Incertas [0:02:15.32]
13. Vaga, No Azul Amplo Solta [0:04:36.02]
14. Velho Anjo [0:03:05.14]
15. A Sós Com A Noite [0:03:58.46]
[свернуть]

youtube.com

[свернуть]

Исполнители/Performers

Ana Moura - Lead vocals
Jorge Fernando - Guitar, arranger, producer
Filipe Larsen - Guitar (bass)
[свернуть]

EAC лог

Exact Audio Copy V1.3 from 2. September 2016

EAC extraction logfile from 11. September 2017, 19:40

Ana Moura / Para Além Da Saudade

Used drive : ATAPI iHAS124 D Adapter: 0 ID: 2

Read mode : Secure
Utilize accurate stream : Yes
Defeat audio cache : Yes
Make use of C2 pointers : No

Read offset correction : 6
Overread into Lead-In and Lead-Out : No
Fill up missing offset samples with silence : Yes
Delete leading and trailing silent blocks : No
Null samples used in CRC calculations : Yes
Used interface : Installed external ASPI interface

Used output format : User Defined Encoder
Selected bitrate : 1024 kBit/s
Quality : High
Add ID3 tag : No
Command line compressor : C:\Program Files (x86)\Exact Audio Copy\Flac\flac.exe
Additional command line options : -6 -V -T "ARTIST=%artist%" -T "TITLE=%title%" -T "ALBUM=%albumtitle%" -T "DATE=%year%" -T "TRACKNUMBER=%tracknr%" -T "GENRE=%genre%" -T "COMMENT=%comment%" -T "BAND=%albuminterpret%" -T "ALBUMARTIST=%albuminterpret%" -T "COMPOSER=%composer%" %haslyrics%--tag-from-file=LYRICS="%lyricsfile%"%haslyrics% -T "DISCNUMBER=%cdnumber%" -T "TOTALDISCS=%totalcds%" -T "TOTALTRACKS=%numtracks%" %hascover%--picture="%coverfile%"%hascover% %source% -o %dest%


TOC of the extracted CD

Track | Start | Length | Start sector | End sector
---------------------------------------------------------
1 | 0:00.00 | 3:36.12 | 0 | 16211
2 | 3:36.12 | 3:04.34 | 16212 | 30045
3 | 6:40.46 | 3:14.41 | 30046 | 44636
4 | 9:55.12 | 2:33.71 | 44637 | 56182
5 | 12:29.08 | 1:44.74 | 56183 | 64056
6 | 14:14.07 | 2:29.61 | 64057 | 75292
7 | 16:43.68 | 3:23.45 | 75293 | 90562
8 | 20:07.38 | 3:27.06 | 90563 | 106093
9 | 23:34.44 | 2:16.28 | 106094 | 116321
10 | 25:50.72 | 3:22.16 | 116322 | 131487
11 | 29:13.13 | 3:53.16 | 131488 | 148978
12 | 33:06.29 | 2:15.32 | 148979 | 159135
13 | 35:21.61 | 4:36.02 | 159136 | 179837
14 | 39:57.63 | 3:05.14 | 179838 | 193726
15 | 43:03.02 | 3:58.46 | 193727 | 211622


Range status and errors

Selected range

Filename C:\mm\Ana Moura\2007 - Para Alem Da Saudade [468072]\Ana Moura - Para Alem Da Saudade.wav

Peak level 95.5 %
Extraction speed 8.4 X
Range quality 100.0 %
Test CRC 39C64C10
Copy CRC 39C64C10
Copy OK

No errors occurred


AccurateRip summary

Track 1 accurately ripped (confidence 25) [F2DA017F] (AR v2)
Track 2 accurately ripped (confidence 25) [B6441B25] (AR v2)
Track 3 accurately ripped (confidence 25) [4924B447] (AR v2)
Track 4 accurately ripped (confidence 25) [B94D176D] (AR v2)
Track 5 accurately ripped (confidence 25) [EAC655E5] (AR v2)
Track 6 accurately ripped (confidence 25) [616DA818] (AR v2)
Track 7 accurately ripped (confidence 25) [2F1869C7] (AR v2)
Track 8 accurately ripped (confidence 25) [9AFF5696] (AR v2)
Track 9 accurately ripped (confidence 25) [BA87EA81] (AR v2)
Track 10 accurately ripped (confidence 25) [4F8F51AC] (AR v2)
Track 11 accurately ripped (confidence 25) [55AB38B0] (AR v2)
Track 12 accurately ripped (confidence 25) [EF822498] (AR v2)
Track 13 accurately ripped (confidence 25) [945E1F43] (AR v2)
Track 14 accurately ripped (confidence 25) [E14AC338] (AR v2)
Track 15 accurately ripped (confidence 25) [D3CD2776] (AR v2)

All tracks accurately ripped

End of status report

---- CUETools DB Plugin V2.1.6

[CTDB TOCID: OYRHfiMJ4tAbnTY38uoVnhbYMOM-] found
Submit result: OYRHfiMJ4tAbnTY38uoVnhbYMOM- has been confirmed
Track | CTDB Status
1 | (28/29) Accurately ripped
2 | (29/29) Accurately ripped
3 | (29/29) Accurately ripped
4 | (29/29) Accurately ripped
5 | (29/29) Accurately ripped
6 | (29/29) Accurately ripped
7 | (29/29) Accurately ripped
8 | (29/29) Accurately ripped
9 | (29/29) Accurately ripped
10 | (29/29) Accurately ripped
11 | (29/29) Accurately ripped
12 | (29/29) Accurately ripped
13 | (29/29) Accurately ripped
14 | (29/29) Accurately ripped
15 | (28/29) Accurately ripped
[свернуть]

Файл CUE

REM GENRE Fado
REM DATE 2007
REM DISCID D20B050F
REM COMMENT "ExactAudioCopy v1.3"
PERFORMER "Ana Moura"
TITLE "Para Alem Da Saudade"
REM COMPOSER ""
FILE "Ana Moura - Para Alem Da Saudade.flac" WAVE
TRACK 01 AUDIO
TITLE "Os Buzios"
PERFORMER "Ana Moura"
REM COMPOSER ""
INDEX 01 00:00:00
TRACK 02 AUDIO
TITLE "E Viemos Nascidos Do Mar"
PERFORMER "Ana Moura"
REM COMPOSER ""
INDEX 00 03:33:08
INDEX 01 03:36:12
TRACK 03 AUDIO
TITLE "A Voz Que Conta A Nossa Historia"
PERFORMER "Ana Moura"
REM COMPOSER ""
INDEX 00 06:38:43
INDEX 01 06:40:46
TRACK 04 AUDIO
TITLE "Aguas Do Sul"
PERFORMER "Ana Moura"
REM COMPOSER ""
INDEX 00 09:53:09
INDEX 01 09:55:12
TRACK 05 AUDIO
TITLE "O Fado Da Procura"
PERFORMER "Ana Moura"
REM COMPOSER ""
INDEX 00 12:26:04
INDEX 01 12:29:08
TRACK 06 AUDIO
TITLE "Rosa Cor De Rosa"
PERFORMER "Ana Moura"
REM COMPOSER ""
INDEX 00 14:12:04
INDEX 01 14:14:07
TRACK 07 AUDIO
TITLE "Primeira Vez"
PERFORMER "Ana Moura"
REM COMPOSER ""
INDEX 00 16:41:65
INDEX 01 16:43:68
TRACK 08 AUDIO
TITLE "Nao Fui Eu"
PERFORMER "Ana Moura"
REM COMPOSER ""
INDEX 00 20:04:34
INDEX 01 20:07:38
TRACK 09 AUDIO
TITLE "Mapa Do Coracao"
PERFORMER "Ana Moura"
REM COMPOSER ""
INDEX 00 23:31:40
INDEX 01 23:34:44
TRACK 10 AUDIO
TITLE "Aguarda-te Ao Chegar"
PERFORMER "Ana Moura"
REM COMPOSER ""
INDEX 00 25:48:69
INDEX 01 25:50:72
TRACK 11 AUDIO
TITLE "Ate Ao Fim Do Fim"
PERFORMER "Ana Moura"
REM COMPOSER ""
INDEX 00 29:11:10
INDEX 01 29:13:13
TRACK 12 AUDIO
TITLE "Fado Das Horas Incertas"
PERFORMER "Ana Moura"
REM COMPOSER ""
INDEX 00 33:04:26
INDEX 01 33:06:29
TRACK 13 AUDIO
TITLE "Vaga, No Azul Amplo Solta"
PERFORMER "Ana Moura"
REM COMPOSER ""
INDEX 00 35:19:58
INDEX 01 35:21:61
TRACK 14 AUDIO
TITLE "Velho Anjo"
PERFORMER "Ana Moura"
REM COMPOSER ""
INDEX 00 39:54:59
INDEX 01 39:57:63
TRACK 15 AUDIO
TITLE "A Sos Com A Noite"
PERFORMER "Ana Moura"
REM COMPOSER ""
INDEX 00 42:59:73
INDEX 01 43:03:02
[свернуть]

Лог проверки качества

AUDIOCHECKER v2.0 beta (build 457) - by Dester -
~~~~~~~~~~~~~~~~~~~~~~~~~~~~~~~~~~
-=== НЕ РЕДАКТИРУЙТЕ ЭТОТ ФАЙЛ! ===-

Путь: ...\2007 - Para Alem Da Saudade [468072]

1 -=- Ana Moura - Para Alem Da Saudade.flac -=- CDDA (100%)

256266932
[свернуть]

Спектр частот

[свернуть]

Скачать Ana Moura - Para Além Da Saudade



password: sergych
[свернуть]

Контрольная сумма (хеш-сумма) архива

MD5: 74082d8a3618bfabf4282a660f9f6e57
[свернуть]
My opinion of release: 10/10
__________________
TAIFUN.Wings of Soul

Вверх
3 пользователя(ей) сказали cпасибо:
Показать список поблагодаривших

Метки
2007 , ana moura , fado , para além da saudade

Опции темы

Ваши права в разделе
Вы не можете создавать новые темы
Вы не можете отвечать в темах
Вы не можете прикреплять вложения
Вы не можете редактировать свои сообщения

Быстрый переход



Текущее время: 14:18. Часовой пояс GMT +3.
Powered by vBulletin® Version 3.8.10
Copyright ©2000 - 2017, vBulletin Solutions, Inc. Перевод: zCarot
© 2008 - 2017 Taifun With Song
Яндекс.Метрика