TAIFUN With Song
Вернуться   TAIFUN With Song > Music (обменник) > Rock > Pop Rock
Расширенный поиск
Pop Rock Поп-рок — жанр музыки, объединяющий элементы поп-музыки и рок-музыки. Песни характеризуются простой структурой, запоминающимися мелодиями, повторением музыкальных фраз (от попа), использованием в качестве основных инструментов электрогитар и ударных и агрессивным настроением (от рока).

А знаете ли Вы, что...
Почему песня «А может быть ворона» из советского мультфильма была записана в ускоренном темпе?
«Песня «А может быть ворона» изначально должна была звучать в мультфильме «Пластилиновая ворона» в обычном темпе. Однако режиссёр Александр Татарский не проследил за временем записи, из-за чего песня не уложилась в отведённые 5 минут анимации. Решение было найдено простое — песню ускорили, в результате чего она приобрела своё знаменитое «мультяшное» звучание.»
 
Опции темы

  #1
Старый 05.09.2017, 22:44
sergych
Координатор
Досье
 
Аватар для sergych
Релиз Phil Collins - Testify


2002 - Phil Collins - Testify




Исполнитель/Artist: Phil Collins
Альбом/Album: Testify
Год/Year: 2002
Жанр/Genre: Rock, pop rock, pop
Страна/Country: Япония
Рекорд-лейбл/Record label: Warner Music
Номер в каталоге/Catalogue #: WPCR 11366
Формат/Format: Free Lossless Audio Codec (*.flac)
Качество/Quality: Lossless
Тип рипа/RIP Type: image+.cue
Продолжительность/Length: 01:02:06
Источник/Source: Собственный рип
Размер/Size: 638.4 MB

Сканы в комплекте

Треклист

01. Wake Up Call [0:05:15.67]
02. Come With Me [0:04:34.23]
03. Testify [0:06:31.50]
04. Don't Get Me Started [0:04:41.25]
05. Swing Low [0:05:08.15]
06. It's Not Too Late [0:03:59.50]
07. This Love This Heart [0:04:04.55]
08. Driving Me Crazy [0:04:37.47]
09. The Least You Can Do [0:04:21.73]
10. Can't Stop Loving You [0:04:17.22]
11. Thru My Eyes [0:05:07.18]
12. You Touch My Heart [0:04:44.60]

Bonus track:
13. High Flying Angel [0:04:41.52]
[свернуть]

youtube.com

[свернуть]

Исполнители/Performers

Phil Collins - vocals, all instruments except where noted
Daryl Stuermer - guitar (9, 10)
Tim Pierce - guitars (1-11), nylon guitar (12)
Paul Bushnell - bass guitar (3-10)
Jamie Muhoberac - keyboards (9, 10)
Eric Rigler - Uilleann pipes (9)
[свернуть]

EAC лог

Exact Audio Copy V1.3 from 2. September 2016

EAC extraction logfile from 12. August 2017, 22:35

Phil Collins / Testify

Used drive : PLEXTOR DVDR PX-716A Adapter: 1 ID: 0

Read mode : Secure
Utilize accurate stream : Yes
Defeat audio cache : Yes
Make use of C2 pointers : No

Read offset correction : 30
Overread into Lead-In and Lead-Out : No
Fill up missing offset samples with silence : Yes
Delete leading and trailing silent blocks : No
Null samples used in CRC calculations : Yes
Used interface : Installed external ASPI interface

Used output format : User Defined Encoder
Selected bitrate : 1024 kBit/s
Quality : High
Add ID3 tag : No
Command line compressor : C:\Program Files (x86)\Exact Audio Copy\Flac\flac.exe
Additional command line options : -6 -V -T "ARTIST=%artist%" -T "TITLE=%title%" -T "ALBUM=%albumtitle%" -T "DATE=%year%" -T "TRACKNUMBER=%tracknr%" -T "GENRE=%genre%" -T "COMMENT=%comment%" -T "BAND=%albuminterpret%" -T "ALBUMARTIST=%albuminterpret%" -T "COMPOSER=%composer%" %haslyrics%--tag-from-file=LYRICS="%lyricsfile%"%haslyrics% -T "DISCNUMBER=%cdnumber%" -T "TOTALDISCS=%totalcds%" -T "TOTALTRACKS=%numtracks%" %hascover%--picture="%coverfile%"%hascover% %source% -o %dest%


TOC of the extracted CD

Track | Start | Length | Start sector | End sector
---------------------------------------------------------
1 | 0:00.00 | 5:15.67 | 0 | 23691
2 | 5:15.67 | 4:34.23 | 23692 | 44264
3 | 9:50.15 | 6:31.50 | 44265 | 73639
4 | 16:21.65 | 4:41.25 | 73640 | 94739
5 | 21:03.15 | 5:08.15 | 94740 | 117854
6 | 26:11.30 | 3:59.50 | 117855 | 135829
7 | 30:11.05 | 4:04.55 | 135830 | 154184
8 | 34:15.60 | 4:37.47 | 154185 | 175006
9 | 38:53.32 | 4:21.73 | 175007 | 194654
10 | 43:15.30 | 4:17.22 | 194655 | 213951
11 | 47:32.52 | 5:07.18 | 213952 | 236994
12 | 52:39.70 | 4:44.60 | 236995 | 258354
13 | 57:24.55 | 4:41.52 | 258355 | 279481
14 | 64:38.32 | 9:19.43 | 290882 | 332849


Range status and errors

Selected range

Filename C:\mm\Phil Collins\2002 - Testify [WPCR 11366]\Phil Collins - Testify.wav

Peak level 100.0 %
Extraction speed 11.1 X
Range quality 99.9 %
Test CRC 515EDC5E
Copy CRC 515EDC5E
Copy OK

No errors occurred

End of status report

---- CUETools DB Plugin V2.1.6

[CTDB TOCID: 5F0sa68gjLA9iOsMDYYfP1D7cj0-] found
Submit result: 5F0sa68gjLA9iOsMDYYfP1D7cj0- has been submitted
Track | CTDB Status
1 | ( 0/10) No match
2 | ( 0/10) No match
3 | ( 0/10) No match
4 | ( 0/10) No match
5 | ( 0/10) No match
6 | ( 0/10) No match
7 | ( 0/10) No match
8 | ( 0/10) No match
9 | ( 0/10) No match
10 | ( 0/10) No match
11 | ( 0/10) No match
12 | ( 0/10) No match
13 | ( 0/10) No match
[свернуть]

Файл CUE

REM GENRE Rock
REM DATE 2002
REM DISCID D011560E
REM COMMENT "ExactAudioCopy v1.3"
PERFORMER "Phil Collins"
TITLE "Testify"
REM COMPOSER ""
FILE "Phil Collins - Testify.flac" WAVE
TRACK 01 AUDIO
TITLE "Wake Up Call"
PERFORMER "Phil Collins"
REM COMPOSER ""
INDEX 01 00:00:00
TRACK 02 AUDIO
TITLE "Come With Me"
PERFORMER "Phil Collins"
REM COMPOSER ""
INDEX 00 05:14:22
INDEX 01 05:15:67
TRACK 03 AUDIO
TITLE "Testify"
PERFORMER "Phil Collins"
REM COMPOSER ""
INDEX 00 09:48:50
INDEX 01 09:50:15
TRACK 04 AUDIO
TITLE "Don't Get Me Started"
PERFORMER "Phil Collins"
REM COMPOSER ""
INDEX 00 16:20:12
INDEX 01 16:21:65
TRACK 05 AUDIO
TITLE "Swing Low"
PERFORMER "Phil Collins"
REM COMPOSER ""
INDEX 00 21:01:55
INDEX 01 21:03:15
TRACK 06 AUDIO
TITLE "It's Not Too Late"
PERFORMER "Phil Collins"
REM COMPOSER ""
INDEX 00 26:10:45
INDEX 01 26:11:30
TRACK 07 AUDIO
TITLE "This Love This Heart"
PERFORMER "Phil Collins"
REM COMPOSER ""
INDEX 00 30:10:27
INDEX 01 30:11:05
TRACK 08 AUDIO
TITLE "Driving Me Crazy"
PERFORMER "Phil Collins"
REM COMPOSER ""
INDEX 01 34:15:60
TRACK 09 AUDIO
TITLE "The Least You Can Do"
PERFORMER "Phil Collins"
REM COMPOSER ""
INDEX 00 38:51:60
INDEX 01 38:53:32
TRACK 10 AUDIO
TITLE "Can't Stop Loving You"
PERFORMER "Phil Collins"
REM COMPOSER ""
INDEX 00 43:14:15
INDEX 01 43:15:30
TRACK 11 AUDIO
TITLE "Thru My Eyes"
PERFORMER "Phil Collins"
REM COMPOSER ""
INDEX 00 47:31:52
INDEX 01 47:32:52
TRACK 12 AUDIO
TITLE "You Touch My Heart"
PERFORMER "Phil Collins"
REM COMPOSER ""
INDEX 00 52:39:00
INDEX 01 52:39:70
TRACK 13 AUDIO
TITLE "High Flying Angel"
PERFORMER "Phil Collins"
REM COMPOSER ""
INDEX 00 57:22:65
INDEX 01 57:24:55
[свернуть]

Лог проверки качества

AUDIOCHECKER v2.0 beta (build 457) - by Dester -
~~~~~~~~~~~~~~~~~~~~~~~~~~~~~~~~~~
-=== НЕ РЕДАКТИРУЙТЕ ЭТОТ ФАЙЛ! ===-

Путь: ...\2002 - Testify [WPCR 11366]

1 -=- Phil Collins - Testify.flac -=- CDDA (100%)

24905316
[свернуть]

Спектр частот

[свернуть]

Скачать Phil Collins - Testify



password: sergych
[свернуть]

Контрольная сумма (хеш-сумма) архива

MD5: cebc7f1ced104f41925e9843eb2fb129
[свернуть]
My opinion of release: 10/10
__________________
TAIFUN.Wings of Soul

Вверх
5 пользователя(ей) сказали cпасибо:
Показать список поблагодаривших
  #2
Старый 06.09.2017, 11:57
swint68
Меломан
Досье
 
Аватар для swint68
По умолчанию Re: Phil Collins - Testify

Не скажу, что являюсь ярым поклонником его творчества.
Но ко всему, что делает тов. Коллинз отношусь с большим уважением и интересом.
Спасибо за столь редкое издание!

Вверх
2 пользователя(ей) сказали cпасибо:
sergych (07.09.2017), TAIFUN (08.09.2017)
Похожие темы
Тема Автор Раздел Ответов Последнее сообщение
Альбом Phil Collins - Going Back sergych Pop Rock 0 02.10.2016 01:46
Альбом Phil Collins - Hello, I Must Be Going! sergych Pop Rock 0 14.05.2015 21:25
Ремикс Phil Collins - 12''ers sergych Pop Rock 0 09.09.2014 22:36
Альбом Phil Collins - Both Sides sergych Pop Rock 1 02.05.2014 03:42
Альбом Phil Collins - ...But Seriously PUPOKIN Art Rock 0 01.11.2009 09:53


Метки
2002 , phil collins , pop , pop rock , rock , testify

Опции темы

Ваши права в разделе
Вы не можете создавать новые темы
Вы не можете отвечать в темах
Вы не можете прикреплять вложения
Вы не можете редактировать свои сообщения

Быстрый переход



Текущее время: 00:57. Часовой пояс GMT +3.
Powered by vBulletin® Version 3.8.10
Copyright ©2000 - 2017, vBulletin Solutions, Inc. Перевод: zCarot
© 2008 - 2017 Taifun With Song
Яндекс.Метрика