TAIFUN With Song
А знаете ли Вы, что...
Какая консерватория носит имя композитора, которому отказала в приёме?
«Миланская консерватория носит имя Джузеппе Верди, хотя в 1833 году отказала ему в зачислении. Юному Верди было сказано, что он на 4 года старше обычного возраста принимаемых, не является гражданином Ломбардо-Венецианского королевства и лишён музыкального таланта.»
 
Опции темы

  #1
Старый 20.08.2017, 18:28
sergych
Координатор
Досье
 
Аватар для sergych
Релиз Sarah McLachlan - Touch


1989 - Sarah McLachlan - Touch




Исполнитель/Artist: Sarah McLachlan
Альбом/Album: Touch
Год/Year: 1989
Жанр/Genre: Pop, rock, pop rock, adult contemporary
Страна/Country: Соединённые Штаты
Рекорд-лейбл/Record label: Arista Records
Номер в каталоге/Catalogue #: ARCD-8594
Формат/Format: Free Lossless Audio Codec (*.flac)
Качество/Quality: Lossless
Тип рипа/RIP Type: image+.cue
Продолжительность/Length: 00:47:48
Источник/Source: Собственный рип
Размер/Size: 346 MB

Сканы в комплекте

Треклист

01. Out Of The Shadows [0:05:02.37]
02. Vox [0:04:53.20]
03. Strange World [0:04:06.60]
04. Trust [0:04:48.45]
05. Touch [0:03:14.63]
06. Steaming [0:04:44.00]
07. Sad Clown [0:04:31.32]
08. Uphill Battle [0:04:39.60]
09. Ben's Song [0:04:57.30]
10. Vox (Extended) [0:06:49.53]
[свернуть]

youtube.com

[свернуть]

Исполнители/Performers

Sarah McLachlan: vocals, 12-string and classical guitars, piano, keyboards
Naomi McLeod: backing vocals
Stephen Nikleva: electric guitar
David Kershaw: bass guitar, double bass, backing vocals
Jeff Krosse (aka Jeff Sawatzky): bass guitar, backing vocals
Darren Phillips: drums, percussion, keyboards
Greg Reely: drums, percussion
Ross Hales: drums
Rudy, Sherri Leigh (aka Sherri Iwaschuk), Steve, Tippi: percussion
[свернуть]

EAC лог

Exact Audio Copy V1.3 from 2. September 2016

EAC extraction logfile from 13. August 2017, 20:56

Sarah McLachlan / Touch

Used drive : PLEXTOR DVDR PX-716A Adapter: 1 ID: 0

Read mode : Secure
Utilize accurate stream : Yes
Defeat audio cache : Yes
Make use of C2 pointers : No

Read offset correction : 30
Overread into Lead-In and Lead-Out : No
Fill up missing offset samples with silence : Yes
Delete leading and trailing silent blocks : No
Null samples used in CRC calculations : Yes
Used interface : Installed external ASPI interface

Used output format : User Defined Encoder
Selected bitrate : 1024 kBit/s
Quality : High
Add ID3 tag : No
Command line compressor : C:\Program Files (x86)\Exact Audio Copy\Flac\flac.exe
Additional command line options : -6 -V -T "ARTIST=%artist%" -T "TITLE=%title%" -T "ALBUM=%albumtitle%" -T "DATE=%year%" -T "TRACKNUMBER=%tracknr%" -T "GENRE=%genre%" -T "COMMENT=%comment%" -T "BAND=%albuminterpret%" -T "ALBUMARTIST=%albuminterpret%" -T "COMPOSER=%composer%" %haslyrics%--tag-from-file=LYRICS="%lyricsfile%"%haslyrics% -T "DISCNUMBER=%cdnumber%" -T "TOTALDISCS=%totalcds%" -T "TOTALTRACKS=%numtracks%" %hascover%--picture="%coverfile%"%hascover% %source% -o %dest%


TOC of the extracted CD

Track | Start | Length | Start sector | End sector
---------------------------------------------------------
1 | 0:00.00 | 5:02.37 | 0 | 22686
2 | 5:02.37 | 4:53.20 | 22687 | 44681
3 | 9:55.57 | 4:06.60 | 44682 | 63191
4 | 14:02.42 | 4:48.45 | 63192 | 84836
5 | 18:51.12 | 3:14.63 | 84837 | 99449
6 | 22:06.00 | 4:44.00 | 99450 | 120749
7 | 26:50.00 | 4:31.32 | 120750 | 141106
8 | 31:21.32 | 4:39.60 | 141107 | 162091
9 | 36:01.17 | 4:57.30 | 162092 | 184396
10 | 40:58.47 | 6:49.53 | 184397 | 215124


Range status and errors

Selected range

Filename C:\mm\Sarah McLachlan\1989 - Touch [ARCD-8594]\Sarah McLachlan - Touch.wav

Peak level 100.0 %
Extraction speed 12.2 X
Range quality 100.0 %
Test CRC 9AD793B8
Copy CRC 9AD793B8
Copy OK

No errors occurred

End of status report

---- CUETools DB Plugin V2.1.6

[CTDB TOCID: 6r0eyByt71r_Bo2GXsixNyCldWc-] found
Submit result: 6r0eyByt71r_Bo2GXsixNyCldWc- has been confirmed
Track | CTDB Status
1 | (191/192) Accurately ripped
2 | (191/192) Accurately ripped
3 | (190/192) Accurately ripped
4 | (192/192) Accurately ripped
5 | (190/192) Accurately ripped
6 | (183/192) Accurately ripped, or (8/192) differs in 59 samples @01:18:51
7 | (192/192) Accurately ripped
8 | (190/192) Accurately ripped
9 | (191/192) Accurately ripped
10 | (188/192) Accurately ripped
[свернуть]

Файл CUE

REM GENRE "Pop Rock"
REM DATE 1989
REM DISCID 7A0B340A
REM COMMENT "ExactAudioCopy v1.3"
PERFORMER "Sarah McLachlan"
TITLE "Touch"
REM COMPOSER ""
FILE "Sarah McLachlan - Touch.flac" WAVE
TRACK 01 AUDIO
TITLE "Out Of The Shadows"
PERFORMER "Sarah McLachlan"
REM COMPOSER ""
INDEX 01 00:00:00
TRACK 02 AUDIO
TITLE "Vox"
PERFORMER "Sarah McLachlan"
REM COMPOSER ""
INDEX 00 04:59:17
INDEX 01 05:02:37
TRACK 03 AUDIO
TITLE "Strange World"
PERFORMER "Sarah McLachlan"
REM COMPOSER ""
INDEX 00 09:53:42
INDEX 01 09:55:57
TRACK 04 AUDIO
TITLE "Trust"
PERFORMER "Sarah McLachlan"
REM COMPOSER ""
INDEX 00 14:01:70
INDEX 01 14:02:42
TRACK 05 AUDIO
TITLE "Touch"
PERFORMER "Sarah McLachlan"
REM COMPOSER ""
INDEX 00 18:49:67
INDEX 01 18:51:12
TRACK 06 AUDIO
TITLE "Steaming"
PERFORMER "Sarah McLachlan"
REM COMPOSER ""
INDEX 00 22:03:62
INDEX 01 22:06:00
TRACK 07 AUDIO
TITLE "Sad Clown"
PERFORMER "Sarah McLachlan"
REM COMPOSER ""
INDEX 00 26:48:72
INDEX 01 26:50:00
TRACK 08 AUDIO
TITLE "Uphill Battle"
PERFORMER "Sarah McLachlan"
REM COMPOSER ""
INDEX 00 31:18:70
INDEX 01 31:21:32
TRACK 09 AUDIO
TITLE "Ben's Song"
PERFORMER "Sarah McLachlan"
REM COMPOSER ""
INDEX 00 36:00:27
INDEX 01 36:01:17
TRACK 10 AUDIO
TITLE "Vox (Extended)"
PERFORMER "Sarah McLachlan"
REM COMPOSER ""
INDEX 00 40:55:20
INDEX 01 40:58:47
[свернуть]

Лог проверки качества

AUDIOCHECKER v2.0 beta (build 457) - by Dester -
~~~~~~~~~~~~~~~~~~~~~~~~~~~~~~~~~~
-=== НЕ РЕДАКТИРУЙТЕ ЭТОТ ФАЙЛ! ===-

Путь: ...\1989 - Touch [ARCD-8594]

1 -=- Sarah McLachlan - Touch.flac -=- CDDA (100%)

75558596
[свернуть]

Спектр частот

[свернуть]

Скачать Sarah McLachlan - Touch



password: sergych
[свернуть]

Контрольная сумма (хеш-сумма) архива

MD5: 84d7e76fe46635a8896da19012f96c91
[свернуть]
My opinion of release: 10/10
__________________
TAIFUN.Wings of Soul

Вверх
3 пользователя(ей) сказали cпасибо:
Показать список поблагодаривших
  #2
Старый 20.08.2017, 19:44
swint68
Меломан
Досье
 
Аватар для swint68
По умолчанию Re: Sarah McLachlan - Touch

Супер!
Большое спасибо!!!

Вверх
Пользователь сказал cпасибо:
sergych (24.08.2017)
Похожие темы
Тема Автор Раздел Ответов Последнее сообщение
Сборник Sarah McLachlan - Closer: The Best Of Sarah McLachlan sergych Зарубежная Поп-Музыка 0 18.01.2015 12:02
Альбом Sarah McLachlan - Surfacing sergych Зарубежная Поп-Музыка 0 04.09.2014 18:54
Альбом Sarah McLachlan - Afterglow sergych Зарубежная Поп-Музыка 0 22.08.2014 18:46
Live Sarah McLachlan - Mirrorball sergych Зарубежная Поп-Музыка 0 09.12.2013 20:22
Delerium feat. Sarah Mclachlan DarkDan Trance 1 23.10.2008 22:24


Метки
1989 , adult contemporary , pop , pop rock , rock , sarah mclachlan , touch

Опции темы

Ваши права в разделе
Вы не можете создавать новые темы
Вы не можете отвечать в темах
Вы не можете прикреплять вложения
Вы не можете редактировать свои сообщения

Быстрый переход



Текущее время: 10:32. Часовой пояс GMT +3.
Powered by vBulletin® Version 3.8.10
Copyright ©2000 - 2017, vBulletin Solutions, Inc. Перевод: zCarot
© 2008 - 2017 Taifun With Song
Яндекс.Метрика