TAIFUN With Song
Jazz и Blues Гибкая ритмика, импровизационное начало, гармонии и мелодии - все это Jazz. Blues - жизнеутверждающая музыка, рожденная из душевной боли

А знаете ли Вы, что...
Почему в радуге выделяют 7 цветов?
«Хотя многоцветный спектр радуги непрерывен, по традиции в нём выделяют 7 цветов. Считают, что первым выбрал это число Исаак Ньютон. Причём первоначально он различал только пять цветов — красный, жёлтый, зелёный, голубой и фиолетовый, о чём и написал в своей «Оптике». Но впоследствии, стремясь создать соответствие между числом цветов спектра и числом основных тонов музыкальной гаммы, Ньютон добавил ещё два цвета.»
 
Опции темы

  #1
Старый 17.08.2017, 23:50
sergych
Координатор
Досье
 
Аватар для sergych
Релиз Candy Dulfer - Girl Night Out


1999 - Candy Dulfer - Girl Night Out




Исполнитель/Artist: Candy Dulfer
Альбом/Album: Girl Night Out {Promo}
Год/Year: 1999
Жанр/Genre: Smooth jazz, funk, nu jazz
Страна/Country: Япония
Рекорд-лейбл/Record label: BMG
Номер в каталоге/Catalogue #: BVCP-21074
Формат/Format: Free Lossless Audio Codec (*.flac)
Качество/Quality: Lossless
Тип рипа/RIP Type: image+.cue
Продолжительность/Length: 01:05:10
Источник/Source: Собственный рип
Размер/Size: 538.7 MB

Сканы в комплекте

Треклист

01. Girls Night Out [0:03:26.50]
02. 2025 [0:04:44.37]
03. Fred's Joint [0:04:26.00]
04. Mr. Slim [0:04:05.63]
05. Island Lady [0:04:56.02]
06. Nikki's Dream [0:03:12.58]
07. So Cool [0:05:43.10]
08. Dance 'Till U Bop [0:05:10.12]
09. No Problem [0:05:10.30]
10. I'm The One [0:03:50.50]
11. Soullala [0:04:08.50]
12. What Does It Take [0:04:19.15]
13. Cookie [0:05:05.23]
14. Frankie D.'S 'Out of the door mix' [0:06:50.50]
[свернуть]

youtube.com

[свернуть]

EAC лог

Exact Audio Copy V1.3 from 2. September 2016

EAC extraction logfile from 12. August 2017, 16:18

Candy Dulfer / Girl Night Out

Used drive : PLEXTOR DVDR PX-716A Adapter: 1 ID: 0

Read mode : Secure
Utilize accurate stream : Yes
Defeat audio cache : Yes
Make use of C2 pointers : No

Read offset correction : 30
Overread into Lead-In and Lead-Out : No
Fill up missing offset samples with silence : Yes
Delete leading and trailing silent blocks : No
Null samples used in CRC calculations : Yes
Used interface : Installed external ASPI interface

Used output format : User Defined Encoder
Selected bitrate : 1024 kBit/s
Quality : High
Add ID3 tag : No
Command line compressor : C:\Program Files (x86)\Exact Audio Copy\Flac\flac.exe
Additional command line options : -6 -V -T "ARTIST=%artist%" -T "TITLE=%title%" -T "ALBUM=%albumtitle%" -T "DATE=%year%" -T "TRACKNUMBER=%tracknr%" -T "GENRE=%genre%" -T "COMMENT=%comment%" -T "BAND=%albuminterpret%" -T "ALBUMARTIST=%albuminterpret%" -T "COMPOSER=%composer%" %haslyrics%--tag-from-file=LYRICS="%lyricsfile%"%haslyrics% -T "DISCNUMBER=%cdnumber%" -T "TOTALDISCS=%totalcds%" -T "TOTALTRACKS=%numtracks%" %hascover%--picture="%coverfile%"%hascover% %source% -o %dest%


TOC of the extracted CD

Track | Start | Length | Start sector | End sector
---------------------------------------------------------
1 | 0:00.00 | 3:26.50 | 0 | 15499
2 | 3:26.50 | 4:44.37 | 15500 | 36836
3 | 8:11.12 | 4:26.00 | 36837 | 56786
4 | 12:37.12 | 4:05.63 | 56787 | 75224
5 | 16:43.00 | 4:56.02 | 75225 | 97426
6 | 21:39.02 | 3:12.58 | 97427 | 111884
7 | 24:51.60 | 5:43.10 | 111885 | 137619
8 | 30:34.70 | 5:10.12 | 137620 | 160881
9 | 35:45.07 | 5:10.30 | 160882 | 184161
10 | 40:55.37 | 3:50.50 | 184162 | 201461
11 | 44:46.12 | 4:08.50 | 201462 | 220111
12 | 48:54.62 | 4:19.15 | 220112 | 239551
13 | 53:14.02 | 5:05.23 | 239552 | 262449
14 | 58:19.25 | 6:50.50 | 262450 | 293249


Range status and errors

Selected range

Filename C:\mm\Candy Dulfer\1999 - Girls Night Out [BVCP-21074]\Candy Dulfer - Girl Night Out.wav

Peak level 99.3 %
Extraction speed 10.7 X
Range quality 99.9 %
Test CRC 53BDB64D
Copy CRC 53BDB64D
Copy OK

No errors occurred

End of status report

---- CUETools DB Plugin V2.1.6

[CTDB TOCID: Kojc45DjNtjFx.4gm_Or4RL9djI-] found
Submit result: Kojc45DjNtjFx.4gm_Or4RL9djI- has been confirmed
Track | CTDB Status
1 | (15/15) Accurately ripped
2 | (15/15) Accurately ripped
3 | (15/15) Accurately ripped
4 | (15/15) Accurately ripped
5 | (15/15) Accurately ripped
6 | (15/15) Accurately ripped
7 | (14/15) Accurately ripped, or (1/15) differs in 359 samples @05:41:69-05:41:72
8 | (15/15) Accurately ripped
9 | (15/15) Accurately ripped
10 | (15/15) Accurately ripped
11 | (15/15) Accurately ripped
12 | (14/15) Accurately ripped, or (1/15) differs in 815 samples @04:17:12-04:17:13,04:17:38-04:17:39,04:18:48,04:18:54-04:18:56,04:19:07
13 | (14/15) Accurately ripped, or (1/15) differs in 6 samples @00:00:15
14 | (15/15) Accurately ripped
[свернуть]

Файл CUE

REM GENRE Jazz
REM DATE 1999
REM DISCID C70F460E
REM COMMENT "ExactAudioCopy v1.3"
PERFORMER "Candy Dulfer"
TITLE "Girl Night Out"
REM COMPOSER ""
FILE "Candy Dulfer - Girl Night Out.flac" WAVE
TRACK 01 AUDIO
TITLE "Girls Night Out"
PERFORMER "Candy Dulfer"
REM COMPOSER ""
INDEX 01 00:00:00
TRACK 02 AUDIO
TITLE "2025"
PERFORMER "Candy Dulfer"
REM COMPOSER ""
INDEX 00 03:25:07
INDEX 01 03:26:50
TRACK 03 AUDIO
TITLE "Fred's Joint"
PERFORMER "Candy Dulfer"
REM COMPOSER ""
INDEX 01 08:11:12
TRACK 04 AUDIO
TITLE "Mr. Slim"
PERFORMER "Candy Dulfer"
REM COMPOSER ""
INDEX 01 12:37:12
TRACK 05 AUDIO
TITLE "Island Lady"
PERFORMER "Candy Dulfer"
REM COMPOSER ""
INDEX 01 16:43:00
TRACK 06 AUDIO
TITLE "Nikki's Dream"
PERFORMER "Candy Dulfer"
REM COMPOSER ""
INDEX 01 21:39:02
TRACK 07 AUDIO
TITLE "So Cool"
PERFORMER "Candy Dulfer"
REM COMPOSER ""
INDEX 01 24:51:60
TRACK 08 AUDIO
TITLE "Dance 'Till U Bop"
PERFORMER "Candy Dulfer"
REM COMPOSER ""
INDEX 00 30:33:25
INDEX 01 30:34:70
TRACK 09 AUDIO
TITLE "No Problem"
PERFORMER "Candy Dulfer"
REM COMPOSER ""
INDEX 01 35:45:07
TRACK 10 AUDIO
TITLE "I'm The One"
PERFORMER "Candy Dulfer"
REM COMPOSER ""
INDEX 00 40:54:45
INDEX 01 40:55:37
TRACK 11 AUDIO
TITLE "Soullala"
PERFORMER "Candy Dulfer"
REM COMPOSER ""
INDEX 00 44:45:20
INDEX 01 44:46:12
TRACK 12 AUDIO
TITLE "What Does It Take"
PERFORMER "Candy Dulfer"
REM COMPOSER ""
INDEX 00 48:51:55
INDEX 01 48:54:62
TRACK 13 AUDIO
TITLE "Cookie"
PERFORMER "Candy Dulfer"
REM COMPOSER ""
INDEX 00 53:11:37
INDEX 01 53:14:02
TRACK 14 AUDIO
TITLE "Frankie D.'S 'Out of the door mix'"
PERFORMER "Candy Dulfer"
REM COMPOSER ""
INDEX 00 58:17:00
INDEX 01 58:19:25
[свернуть]

Лог проверки качества

AUDIOCHECKER v2.0 beta (build 457) - by Dester -
~~~~~~~~~~~~~~~~~~~~~~~~~~~~~~~~~~
-=== НЕ РЕДАКТИРУЙТЕ ЭТОТ ФАЙЛ! ===-

Путь: ...\1999 - Girls Night Out [BVCP-21074]

1 -=- Candy Dulfer - Girl Night Out.flac -=- CDDA (100%)

201814852
[свернуть]

Спектр частот

[свернуть]

Скачать Candy Dulfer - Girl Night Out



password: sergych
[свернуть]

Контрольная сумма (хеш-сумма) архива

MD5: 532c1f676b21d177fbe64d1546794537
[свернуть]
My opinion of release: 10/10
__________________
TAIFUN.Wings of Soul

Вверх
4 пользователя(ей) сказали cпасибо:
Показать список поблагодаривших
Похожие темы
Тема Автор Раздел Ответов Последнее сообщение
Сборник Candy Dulfer - Funked Up & Chilled Out [2CD] aheron Jazz и Blues 0 12.08.2014 16:19
Альбом Candy Dulfer - SAXuality sergych Jazz и Blues 0 26.04.2014 13:25
Релиз Suckers - Candy Salad PUPOKIN Indie Rock 0 25.04.2012 09:34
Релиз Candy Dulfer - Crazy PUPOKIN Jazz и Blues 0 10.10.2011 10:58
Madonna - Hard Candy dmitriy89 Зарубежная Поп-Музыка 0 25.04.2008 19:42


Метки
1999 , candy dulfer , funk , girl night out {promo} , nu jazz , smooth jazz

Опции темы

Ваши права в разделе
Вы не можете создавать новые темы
Вы не можете отвечать в темах
Вы не можете прикреплять вложения
Вы не можете редактировать свои сообщения

Быстрый переход



Текущее время: 10:26. Часовой пояс GMT +3.
Powered by vBulletin® Version 3.8.10
Copyright ©2000 - 2017, vBulletin Solutions, Inc. Перевод: zCarot
© 2008 - 2017 Taifun With Song
Яндекс.Метрика