TAIFUN With Song
Навигация
Вернуться   TAIFUN With Song > Music (обменник) > Rock > Art Rock
Расширенный поиск
Art Rock ART ROCK - под этим термином подразумевается такая форма рока, в которой совмещаются электронное звучание, ритм-энд-блюз, восточный и средневековый европейский фольклор, классика и джаз

А знаете ли Вы, что...
Какое совпадение связало смерти солиста Boney M и Григория Распутина?
«Бобби Фаррелл, единственный мужчина в диско-группе Boney M, во время исполнения одного из главных хитов группы «Rasputin» часто гримировался в образ Распутина. Фаррелл умер от остановки сердца во время гастролей в Санкт-Петербурге 30 декабря 2010 года — того же числа и в том же городе, что и сам Распутин.»
 
Опции темы

  #1
Старый 01.04.2017, 20:36
sergych
Координатор
Досье
 
Аватар для sergych
Релиз Kate Bush - 50 Words For Snow


2011 - Kate Bush - 50 Words For Snow




Исполнитель/Artist: Kate Bush
Альбом/Album: 50 Words For Snow
Год/Year: 2011
Жанр/Genre: Art pop, chamber pop
Страна/Country: Европа
Рекорд-лейбл/Record label: Fish People
Номер в каталоге/Catalogue #: 5099972986622
Формат/Format: Free Lossless Audio Codec (*.flac)
Качество/Quality: Lossless
Тип рипа/RIP Type: image+.cue
Продолжительность/Length: 01:05:09
Источник/Source: Собственный рип
Размер/Size: 449.9 MB

Сканы в комплекте

Треклист

01. Snowflake [0:09:47.52]
02. Lake Tahoe [0:11:08.09]
03. Misty [0:13:32.10]
04. Wild Man [0:07:16.42]
05. Snowed in at Wheeler Street [0:08:05.04]
06. 50 Words for Snow [0:08:30.66]
07. Among Angels [0:06:48.63]
[свернуть]

youtube.com

[свернуть]

Исполнители/Performers

Kate Bush – chorus vocals (1), bass (1), piano (1, 2, 3, 5, 7), vocals (2, 3, 4, 5, 6, 7), backing vocals (4), keyboards (4, 5, 6)
Albert McIntosh – lead vocals (1)
Michael Wood, Stefan Roberts – featured vocals (2)
Andy Fairweather Low – featured vocals (4)
Elton John – featured vocal (5)
Stephen Fry (as Prof. Joseph Yupik) – featured vocals (6)
Dan McIntosh – guitar (1, 3, 4, 5, 6)
Danny Thompson – bass (3)
John Giblin – bass (4, 5, 6)
Del Palmer – bass (1), bells (4)
Steve Gadd – drums (1, 2, 3, 4, 5, 6)
[свернуть]

EAC лог

Exact Audio Copy V1.3 from 2. September 2016

EAC extraction logfile from 29. March 2017, 21:30

Kate Bush / 50 Words For Snow

Used drive : PLEXTOR DVDR PX-716A Adapter: 1 ID: 0

Read mode : Secure
Utilize accurate stream : Yes
Defeat audio cache : Yes
Make use of C2 pointers : No

Read offset correction : 30
Overread into Lead-In and Lead-Out : No
Fill up missing offset samples with silence : Yes
Delete leading and trailing silent blocks : No
Null samples used in CRC calculations : Yes
Used interface : Native Win32 interface for Win NT & 2000

Used output format : User Defined Encoder
Selected bitrate : 1024 kBit/s
Quality : High
Add ID3 tag : No
Command line compressor : C:\Program Files (x86)\Exact Audio Copy\FLAC\FLAC.EXE
Additional command line options : -6 -V -T "ARTIST=%artist%" -T "TITLE=%title%" -T "ALBUM=%albumtitle%" -T "DATE=%year%" -T "TRACKNUMBER=%tracknr%" -T "GENRE=%genre%" -T "COMMENT=%comment%" -T "BAND=%albuminterpret%" -T "ALBUMARTIST=%albuminterpret%" -T "COMPOSER=%composer%" %haslyrics%--tag-from-file=LYRICS="%lyricsfile%"%haslyrics% -T "DISCNUMBER=%cdnumber%" -T "TOTALDISCS=%totalcds%" -T "TOTALTRACKS=%numtracks%" %hascover%--picture="%coverfile%"%hascover% %source% -o %dest%


TOC of the extracted CD

Track | Start | Length | Start sector | End sector
---------------------------------------------------------
1 | 0:00.02 | 9:47.52 | 2 | 44078
2 | 9:47.54 | 11:08.09 | 44079 | 94187
3 | 20:55.63 | 13:32.10 | 94188 | 155097
4 | 34:27.73 | 7:16.42 | 155098 | 187839
5 | 41:44.40 | 8:05.04 | 187840 | 224218
6 | 49:49.44 | 8:30.66 | 224219 | 262534
7 | 58:20.35 | 6:48.63 | 262535 | 293197


Range status and errors

Selected range

Filename C:\mm\Kate Bush\2011 - 50 Words For Snow [5099972986622]\Kate Bush - 50 Words For Snow.wav

Peak level 100.0 %
Extraction speed 3.7 X
Range quality 99.9 %
Test CRC AE9B9EF9
Copy CRC AE9B9EF9
Copy OK

No errors occurred


AccurateRip summary

Track 1 accurately ripped (confidence 200) [0BCF8D5B] (AR v2)
Track 2 accurately ripped (confidence 200) [385ABD6D] (AR v2)
Track 3 accurately ripped (confidence 200) [1F51062E] (AR v2)
Track 4 accurately ripped (confidence 200) [3276365A] (AR v2)
Track 5 accurately ripped (confidence 200) [1FA90C87] (AR v2)
Track 6 accurately ripped (confidence 200) [B2698C8F] (AR v2)
Track 7 accurately ripped (confidence 200) [8B4C9462] (AR v2)

All tracks accurately ripped

End of status report

---- CUETools DB Plugin V2.1.6

[CTDB TOCID: _GE6CbS93HBC8Ocqf0LotAovv.c-] found
Submit result: _GE6CbS93HBC8Ocqf0LotAovv.c- has been confirmed
Track | CTDB Status
1 | (490/495) Accurately ripped
2 | (492/495) Accurately ripped
3 | (489/495) Accurately ripped
4 | (490/495) Accurately ripped
5 | (487/495) Accurately ripped
6 | (487/495) Accurately ripped
7 | (482/495) Accurately ripped
[свернуть]

Файл CUE

REM GENRE Pop/Rock
REM DATE 2011
REM DISCID 640F4507
REM COMMENT "ExactAudioCopy v1.3"
PERFORMER "Kate Bush"
TITLE "50 Words For Snow"
REM COMPOSER ""
FILE "Kate Bush - 50 Words For Snow.flac" WAVE
TRACK 01 AUDIO
TITLE "Snowflake"
PERFORMER "Kate Bush"
REM COMPOSER ""
INDEX 00 00:00:00
INDEX 01 00:00:02
TRACK 02 AUDIO
TITLE "Lake Tahoe"
PERFORMER "Kate Bush"
REM COMPOSER ""
INDEX 00 09:45:51
INDEX 01 09:47:54
TRACK 03 AUDIO
TITLE "Misty"
PERFORMER "Kate Bush"
REM COMPOSER ""
INDEX 00 20:54:59
INDEX 01 20:55:63
TRACK 04 AUDIO
TITLE "Wild Man"
PERFORMER "Kate Bush"
REM COMPOSER ""
INDEX 01 34:27:73
TRACK 05 AUDIO
TITLE "Snowed in at Wheeler Street"
PERFORMER "Kate Bush"
REM COMPOSER ""
INDEX 01 41:44:40
TRACK 06 AUDIO
TITLE "50 Words for Snow"
PERFORMER "Kate Bush"
REM COMPOSER ""
INDEX 01 49:49:44
TRACK 07 AUDIO
TITLE "Among Angels"
PERFORMER "Kate Bush"
REM COMPOSER ""
INDEX 01 58:20:35
[свернуть]

Лог проверки качества

AUDIOCHECKER v2.0 beta (build 457) - by Dester -
~~~~~~~~~~~~~~~~~~~~~~~~~~~~~~~~~~
-=== НЕ РЕДАКТИРУЙТЕ ЭТОТ ФАЙЛ! ===-

Путь: ...\2011 - 50 Words For Snow [5099972986622]

1 -=- Kate Bush - 50 Words For Snow.flac -=- CDDA (100%)

176690436
[свернуть]

Спектр частот

[свернуть]

Скачать Kate Bush - 50 Words For Snow



password: sergych
[свернуть]

Контрольная сумма (хеш-сумма) архива

MD5: abb05f231c3b44d9afa50c68241ea164
[свернуть]
My opinion of release: 7/10

Release info RInfo

10й альбом. Очень настроенческий и в моё нынешнее настроение он не попал. По крайней мере сейчас.
__________________
TAIFUN.Wings of Soul

Вверх
Пользователь сказал cпасибо:
swint68 (02.04.2017)
Похожие темы
Тема Автор Раздел Ответов Последнее сообщение
Сборник Kate Bush - Gold Ballads henrik Alternative Rock 3 05.06.2017 20:57
Сборник Kate Bush - The Whole Story sergych Art Rock 1 04.06.2017 12:14
Релиз Bush - The Sea of Memories PUPOKIN Alternative Rock 0 14.09.2011 09:52
Live Europe - Live at Shepherd's Bush PUPOKIN Heavy Metal 0 07.07.2011 08:41
Релиз Snow Patrol - Up To Now PUPOKIN Alternative Rock 0 05.11.2009 08:48


Метки
2011 , 50 words for snow , art pop , chamber pop , kate bush

Опции темы

Ваши права в разделе
Вы не можете создавать новые темы
Вы не можете отвечать в темах
Вы не можете прикреплять вложения
Вы не можете редактировать свои сообщения

Быстрый переход



Текущее время: 10:55. Часовой пояс GMT +3.
Powered by vBulletin® Version 3.8.10
Copyright ©2000 - 2018, vBulletin Solutions, Inc. Перевод: zCarot
© 2008 - 2018 Taifun With Song
Яндекс.Метрика