TAIFUN With Song
Навигация
Вернуться   TAIFUN With Song > Music (обменник) > Rock > Hard Rock
Расширенный поиск
Hard Rock То, что может восприниматься слушателем как «тяжесть» в хард-роке, достигается, в частности, за счет специфического звучания электрогитары (с такими эффектами, как например, дисторшн и овердрайв) и работы ритм-секции. «Классический» хард-рок обрёл формы в конце 1960-х — начале 1970-х годов в Великобритании. Классический хард-рок отличается от хеви-металла более мелодичным звучанием.

А знаете ли Вы, что...
Что значил жест «коза» до эпохи рока и металла?
«Жест «коза» существовал долгое время как магический знак для защиты от сглаза и злых духов. Ронни Джеймс Дио — солист групп Rainbow и Black Sabbath — был первым, кто показал этот жест на рок-концерте. Фанаты переняли его и теперь «коза» очень популярна среди рокеров и металлистов.»
 
Опции темы

  #1
Старый 03.11.2017, 17:43
sergych
Координатор
Досье
 
Аватар для sergych
Релиз Ace Frehley - Space Invader


2014 - Ace Frehley - Space Invader {Deluxe Edition}




Исполнитель/Artist: Ace Frehley
Альбом/Album: Space Invader {Deluxe Edition}
Год/Year: 2014
Жанр/Genre: Hard rock, heavy metal
Страна/Country: Соединённые Штаты
Рекорд-лейбл/Record label: eOne Music
Номер в каталоге/Catalogue #: EOM-CD-9441
Формат/Format: Free Lossless Audio Codec (*.flac)
Качество/Quality: Lossless
Тип рипа/RIP Type: image+.cue
Продолжительность/Length: 01:01:25
Источник/Source: Собственный рип
Размер/Size: 566.9 MB

Сканы в комплекте

Треклист

01. Space Invader [0:04:17.56]
02. Gimme a Feelin' [0:04:04.59]
03. I Wanna Hold You [0:03:32.64]
04. Change [0:04:08.60]
05. Toys [0:04:09.20]
06. Immortal Pleasures [0:05:05.35]
07. Inside the Vortex [0:04:40.56]
08. What Every Girl Wants [0:03:46.35]
09. Past the Milky Way [0:05:31.58]
10. Reckless [0:04:12.37]
11. The Joker [0:03:35.20]
12. Starship [0:07:05.12]

Bonus tracks:
13. Space Invader (radio edit) [0:03:55.48]
14. Gimme a Feelin' (radio edit) [0:03:18.65]
[свернуть]

youtube.com

[свернуть]

Исполнители/Performers

Ace Frehley – Lead Vocals, Guitars, Bass, Composer, Engineer, Overdubs, Producer, Sound Effects, Vocals (Background)
Matt Starr – Drums, Percussion, Vocals (Background)
Chris Wyse – Bass
Phil Allen - Assistant, Assistant Engineer, Vocals (Background)
Chris Cassone - Composer, Vocals (Background)
Rachael Gordon - Vocals (Background)
Warren Huart - Engineer, Mixing, Overdubs, Producer, Vocals (Background)
Ronnie Mancuso - Engineer, Overdubs, Producer, Tracking, Vocals (Background)
[свернуть]

EAC лог

Exact Audio Copy V1.3 from 2. September 2016

EAC extraction logfile from 17. June 2017, 2:46

Ace Frehley / Space Invader

Used drive : PLEXTOR DVDR PX-716A Adapter: 1 ID: 0

Read mode : Secure
Utilize accurate stream : Yes
Defeat audio cache : Yes
Make use of C2 pointers : No

Read offset correction : 30
Overread into Lead-In and Lead-Out : No
Fill up missing offset samples with silence : Yes
Delete leading and trailing silent blocks : No
Null samples used in CRC calculations : Yes
Used interface : Installed external ASPI interface

Used output format : User Defined Encoder
Selected bitrate : 1024 kBit/s
Quality : High
Add ID3 tag : No
Command line compressor : C:\Program Files (x86)\Exact Audio Copy\Flac\flac.exe
Additional command line options : -6 -V -T "ARTIST=%artist%" -T "TITLE=%title%" -T "ALBUM=%albumtitle%" -T "DATE=%year%" -T "TRACKNUMBER=%tracknr%" -T "GENRE=%genre%" -T "COMMENT=%comment%" -T "BAND=%albuminterpret%" -T "ALBUMARTIST=%albuminterpret%" -T "COMPOSER=%composer%" %haslyrics%--tag-from-file=LYRICS="%lyricsfile%"%haslyrics% -T "DISCNUMBER=%cdnumber%" -T "TOTALDISCS=%totalcds%" -T "TOTALTRACKS=%numtracks%" %hascover%--picture="%coverfile%"%hascover% %source% -o %dest%


TOC of the extracted CD

Track | Start | Length | Start sector | End sector
---------------------------------------------------------
1 | 0:00.00 | 4:17.56 | 0 | 19330
2 | 4:17.56 | 4:04.59 | 19331 | 37689
3 | 8:22.40 | 3:32.64 | 37690 | 53653
4 | 11:55.29 | 4:08.60 | 53654 | 72313
5 | 16:04.14 | 4:09.20 | 72314 | 91008
6 | 20:13.34 | 5:05.35 | 91009 | 113918
7 | 25:18.69 | 4:40.56 | 113919 | 134974
8 | 29:59.50 | 3:46.35 | 134975 | 151959
9 | 33:46.10 | 5:31.58 | 151960 | 176842
10 | 39:17.68 | 4:12.37 | 176843 | 195779
11 | 43:30.30 | 3:35.20 | 195780 | 211924
12 | 47:05.50 | 7:05.12 | 211925 | 243811
13 | 54:10.62 | 3:55.48 | 243812 | 261484
14 | 58:06.35 | 3:18.65 | 261485 | 276399


Range status and errors

Selected range

Filename C:\mm\Ace Frehley\2014 - Space Invader {Deluxe Edition} [EOM-CD-9441]\Ace Frehley - Space Invader.wav

Peak level 99.4 %
Extraction speed 13.1 X
Range quality 100.0 %
Test CRC 3F4D62D9
Copy CRC 3F4D62D9
Copy OK

No errors occurred


AccurateRip summary

Track 1 accurately ripped (confidence 21) [2515F001] (AR v2)
Track 2 accurately ripped (confidence 20) [CB01A3CF] (AR v2)
Track 3 accurately ripped (confidence 20) [9E5502DA] (AR v2)
Track 4 accurately ripped (confidence 20) [525C0882] (AR v2)
Track 5 accurately ripped (confidence 21) [CBD237B8] (AR v2)
Track 6 accurately ripped (confidence 20) [83CCE9B7] (AR v2)
Track 7 accurately ripped (confidence 21) [641EF5BA] (AR v2)
Track 8 accurately ripped (confidence 20) [1CB41EEA] (AR v2)
Track 9 accurately ripped (confidence 21) [3A8175E2] (AR v2)
Track 10 accurately ripped (confidence 20) [305C2962] (AR v2)
Track 11 accurately ripped (confidence 21) [DA89F644] (AR v2)
Track 12 accurately ripped (confidence 21) [84DA8857] (AR v2)
Track 13 accurately ripped (confidence 20) [43000779] (AR v2)
Track 14 accurately ripped (confidence 20) [08F6488B] (AR v2)

All tracks accurately ripped

End of status report

---- CUETools DB Plugin V2.1.6

[CTDB TOCID: 5VnvwBT59jUcp1dz6lQUhbKoPh4-] found
Submit result: 5VnvwBT59jUcp1dz6lQUhbKoPh4- has been confirmed
Track | CTDB Status
1 | (14/15) Accurately ripped
2 | (15/15) Accurately ripped
3 | (15/15) Accurately ripped
4 | (15/15) Accurately ripped
5 | (15/15) Accurately ripped
6 | (15/15) Accurately ripped
7 | (15/15) Accurately ripped
8 | (15/15) Accurately ripped
9 | (15/15) Accurately ripped
10 | (15/15) Accurately ripped
11 | (15/15) Accurately ripped
12 | (15/15) Accurately ripped
13 | (14/15) Accurately ripped
14 | (14/15) Accurately ripped
[свернуть]

Файл CUE

REM GENRE "Hard Rock"
REM DATE 2014
REM DISCID BA0E650E
REM COMMENT "ExactAudioCopy v1.3"
PERFORMER "Ace Frehley"
TITLE "Space Invader"
REM COMPOSER ""
FILE "Ace Frehley - Space Invader.flac" WAVE
TRACK 01 AUDIO
TITLE "Space Invader"
PERFORMER "Ace Frehley"
REM COMPOSER ""
INDEX 01 00:00:00
TRACK 02 AUDIO
TITLE "Gimme a Feelin'"
PERFORMER "Ace Frehley"
REM COMPOSER ""
INDEX 00 04:16:49
INDEX 01 04:17:56
TRACK 03 AUDIO
TITLE "I Wanna Hold You"
PERFORMER "Ace Frehley"
REM COMPOSER ""
INDEX 00 08:21:44
INDEX 01 08:22:40
TRACK 04 AUDIO
TITLE "Change"
PERFORMER "Ace Frehley"
REM COMPOSER ""
INDEX 00 11:54:21
INDEX 01 11:55:29
TRACK 05 AUDIO
TITLE "Toys"
PERFORMER "Ace Frehley"
REM COMPOSER ""
INDEX 00 16:02:65
INDEX 01 16:04:14
TRACK 06 AUDIO
TITLE "Immortal Pleasures"
PERFORMER "Ace Frehley"
REM COMPOSER ""
INDEX 00 20:12:40
INDEX 01 20:13:34
TRACK 07 AUDIO
TITLE "Inside the Vortex"
PERFORMER "Ace Frehley"
REM COMPOSER ""
INDEX 00 25:17:30
INDEX 01 25:18:69
TRACK 08 AUDIO
TITLE "What Every Girl Wants"
PERFORMER "Ace Frehley"
REM COMPOSER ""
INDEX 00 29:58:46
INDEX 01 29:59:50
TRACK 09 AUDIO
TITLE "Past the Milky Way"
PERFORMER "Ace Frehley"
REM COMPOSER ""
INDEX 00 33:44:62
INDEX 01 33:46:10
TRACK 10 AUDIO
TITLE "Reckless"
PERFORMER "Ace Frehley"
REM COMPOSER ""
INDEX 00 39:16:65
INDEX 01 39:17:68
TRACK 11 AUDIO
TITLE "The Joker"
PERFORMER "Ace Frehley"
REM COMPOSER ""
INDEX 00 43:28:58
INDEX 01 43:30:30
TRACK 12 AUDIO
TITLE "Starship"
PERFORMER "Ace Frehley"
REM COMPOSER ""
INDEX 00 47:04:13
INDEX 01 47:05:50
TRACK 13 AUDIO
TITLE "Space Invader (radio edit)"
PERFORMER "Ace Frehley"
REM COMPOSER ""
INDEX 00 54:07:14
INDEX 01 54:10:62
TRACK 14 AUDIO
TITLE "Gimme a Feelin' (radio edit)"
PERFORMER "Ace Frehley"
REM COMPOSER ""
INDEX 00 58:04:43
INDEX 01 58:06:35
[свернуть]

Лог проверки качества

AUDIOCHECKER v2.0 beta (build 457) - by Dester -
~~~~~~~~~~~~~~~~~~~~~~~~~~~~~~~~~~
-=== НЕ РЕДАКТИРУЙТЕ ЭТОТ ФАЙЛ! ===-

Путь: ...\2014 - Space Invader {Deluxe Edition} [EOM-CD-9441]

1 -=- Ace Frehley - Space Invader.flac -=- MPEG (95%)

130546308
[свернуть]

Спектр частот

[свернуть]

Скачать Ace Frehley - Space Invader



password: sergych
[свернуть]

Контрольная сумма (хеш-сумма) архива

MD5: ad0e47c336f0da8b84b30f589a6fc19a
[свернуть]
My opinion of release: 8/10
__________________
TAIFUN.Wings of Soul

Вверх
3 пользователя(ей) сказали cпасибо:
Показать список поблагодаривших
Похожие темы
Тема Автор Раздел Ответов Последнее сообщение
Релиз Reckless Love - InVader PUPOKIN Hard Rock 0 30.03.2016 16:02
Биография Ace Frehley Stanislav1989 Rock [FAQ] 0 05.11.2012 17:55
Релиз Dan Le Sac - Space Between The Words PUPOKIN Club & Electronic Music 0 25.05.2012 10:03
Альбом Space - The Very Best Alex_vn69 Instrumental 0 26.04.2008 22:42
Клуб SPACE МУЗЫКА Ibiza 0 20.04.2008 23:54


Метки
2014 , ace frehley , hard rock , heavy metal , space invader {deluxe edition}

Опции темы

Ваши права в разделе
Вы не можете создавать новые темы
Вы не можете отвечать в темах
Вы не можете прикреплять вложения
Вы не можете редактировать свои сообщения

Быстрый переход



Текущее время: 16:55. Часовой пояс GMT +3.
Powered by vBulletin® Version 3.8.10
Copyright ©2000 - 2018, vBulletin Solutions, Inc. Перевод: zCarot
© 2008 - 2018 Taifun With Song
Яндекс.Метрика