TAIFUN With Song
Навигация
Вернуться   TAIFUN With Song > Music (обменник) > POP > Зарубежная Поп-Музыка
Расширенный поиск
А знаете ли Вы, что...
Кто написал сонату, в которой имитируется половой акт?
«Чешский авангардный композитор Эрвин Шульгоф в 1919 году написал Эротическую сонату, которая по сей день исполняется на музыкальных фестивалях. Фактически соната состоит из одной партии для женского голоса, имитирующего стоны и вздохи при половом акте.»
 
Опции темы

  #1
Старый 01.11.2017, 18:53
sergych
Координатор
Досье
 
Аватар для sergych
Релиз Jonathan Buttler - Put My Love Away


1987 - Jonathan Buttler - Put My Love Away




Исполнитель/Artist: Jonathan Buttler
Альбом/Album: Put My Love Away
Год/Year: 1987
Жанр/Genre: Pop, R'n'B, Smooth jazz, Soul, Gospel
Рекорд-лейбл/Record label: MCMXCI Intersound
Номер в каталоге/Catalogue #: FC 4523
Формат/Format: Free Lossless Audio Codec (*.flac)
Качество/Quality: Lossless
Тип рипа/RIP Type: image+.cue
Продолжительность/Length: 00:44:23
Источник/Source: Собственный рип
Размер/Size: 274.9 MB

Сканы в комплекте

Треклист

01. Jesus Is Alive In Africa [0:04:41.50]
02. Giver Of Everything [0:03:51.60]
03. 7th Avenue [0:05:23.32]
04. Walk On By [0:04:30.65]
05. Do The Boogie [0:03:04.05]
06. Give It All You Got [0:03:31.30]
07. Hold On [0:04:54.53]
08. Felicia [0:05:57.45]
09. It's Been A Long Time [0:04:22.00]
10. Put My Love Away [0:04:05.22]
[свернуть]

youtube.com

[свернуть]

EAC лог

Exact Audio Copy V1.3 from 2. September 2016

EAC extraction logfile from 31. October 2017, 9:14

Jonathan Buttler / Put My Love Away

Used drive : ATAPI iHAS124 D Adapter: 0 ID: 2

Read mode : Secure
Utilize accurate stream : Yes
Defeat audio cache : Yes
Make use of C2 pointers : No

Read offset correction : 6
Overread into Lead-In and Lead-Out : No
Fill up missing offset samples with silence : Yes
Delete leading and trailing silent blocks : No
Null samples used in CRC calculations : Yes
Used interface : Installed external ASPI interface

Used output format : User Defined Encoder
Selected bitrate : 1024 kBit/s
Quality : High
Add ID3 tag : No
Command line compressor : C:\Program Files (x86)\Exact Audio Copy\Flac\flac.exe
Additional command line options : -6 -V -T "ARTIST=%artist%" -T "TITLE=%title%" -T "ALBUM=%albumtitle%" -T "DATE=%year%" -T "TRACKNUMBER=%tracknr%" -T "GENRE=%genre%" -T "COMMENT=%comment%" -T "BAND=%albuminterpret%" -T "ALBUMARTIST=%albuminterpret%" -T "COMPOSER=%composer%" %haslyrics%--tag-from-file=LYRICS="%lyricsfile%"%haslyrics% -T "DISCNUMBER=%cdnumber%" -T "TOTALDISCS=%totalcds%" -T "TOTALTRACKS=%numtracks%" %hascover%--picture="%coverfile%"%hascover% %source% -o %dest%


TOC of the extracted CD

Track | Start | Length | Start sector | End sector
---------------------------------------------------------
1 | 0:00.00 | 4:41.50 | 0 | 21124
2 | 4:41.50 | 3:51.60 | 21125 | 38509
3 | 8:33.35 | 5:23.32 | 38510 | 62766
4 | 13:56.67 | 4:30.65 | 62767 | 83081
5 | 18:27.57 | 3:04.05 | 83082 | 96886
6 | 21:31.62 | 3:31.30 | 96887 | 112741
7 | 25:03.17 | 4:54.53 | 112742 | 134844
8 | 29:57.70 | 5:57.45 | 134845 | 161664
9 | 35:55.40 | 4:22.00 | 161665 | 181314
10 | 40:17.40 | 4:05.22 | 181315 | 199711


Range status and errors

Selected range

Filename C:\mm\Jonathan Butler\ - Put My Love Away [FC 4523]\Jonathan Buttler - Put My Love Away.wav

Peak level 81.5 %
Extraction speed 8.9 X
Range quality 100.0 %
Test CRC 0C8F1EE2
Copy CRC 0C8F1EE2
Copy OK

No errors occurred


AccurateRip summary

Track 1 accurately ripped (confidence 1) [93E01B34] (AR v2)
Track 2 accurately ripped (confidence 1) [16629C70] (AR v2)
Track 3 accurately ripped (confidence 1) [84A4F4F0] (AR v2)
Track 4 accurately ripped (confidence 1) [294910F3] (AR v2)
Track 5 accurately ripped (confidence 1) [3DAB34FF] (AR v2)
Track 6 accurately ripped (confidence 1) [4521849A] (AR v2)
Track 7 accurately ripped (confidence 1) [A84B88FF] (AR v2)
Track 8 accurately ripped (confidence 1) [6A3B6320] (AR v2)
Track 9 accurately ripped (confidence 1) [6A36384D] (AR v2)
Track 10 accurately ripped (confidence 1) [2D019C1F] (AR v2)

All tracks accurately ripped

End of status report

---- CUETools DB Plugin V2.1.6

[CTDB TOCID: RBLqPFSMZ5p2XfBzoKYyhdGKzro-] found
Submit result: RBLqPFSMZ5p2XfBzoKYyhdGKzro- has been confirmed
Track | CTDB Status
1 | (2/2) Accurately ripped
2 | (2/2) Accurately ripped
3 | (2/2) Accurately ripped
4 | (2/2) Accurately ripped
5 | (2/2) Accurately ripped
6 | (2/2) Accurately ripped
7 | (2/2) Accurately ripped
8 | (2/2) Accurately ripped
9 | (2/2) Accurately ripped
10 | (2/2) Accurately ripped
[свернуть]

Файл CUE

REM GENRE Jazz
REM DISCID 8B0A660A
REM COMMENT "ExactAudioCopy v1.3"
PERFORMER "Jonathan Buttler"
TITLE "Put My Love Away"
REM COMPOSER ""
FILE "Jonathan Buttler - Put My Love Away.flac" WAVE
TRACK 01 AUDIO
TITLE "Jesus Is Alive In Africa"
PERFORMER "Jonathan Buttler"
REM COMPOSER ""
INDEX 01 00:00:00
TRACK 02 AUDIO
TITLE "Giver Of Everything"
PERFORMER "Jonathan Buttler"
REM COMPOSER ""
INDEX 01 04:41:50
TRACK 03 AUDIO
TITLE "7th Avenue"
PERFORMER "Jonathan Buttler"
REM COMPOSER ""
INDEX 01 08:33:35
TRACK 04 AUDIO
TITLE "Walk On By"
PERFORMER "Jonathan Buttler"
REM COMPOSER ""
INDEX 01 13:56:67
TRACK 05 AUDIO
TITLE "Do The Boogie"
PERFORMER "Jonathan Buttler"
REM COMPOSER ""
INDEX 01 18:27:57
TRACK 06 AUDIO
TITLE "Give It All You Got"
PERFORMER "Jonathan Buttler"
REM COMPOSER ""
INDEX 01 21:31:62
TRACK 07 AUDIO
TITLE "Hold On"
PERFORMER "Jonathan Buttler"
REM COMPOSER ""
INDEX 01 25:03:17
TRACK 08 AUDIO
TITLE "Felicia"
PERFORMER "Jonathan Buttler"
REM COMPOSER ""
INDEX 01 29:57:70
TRACK 09 AUDIO
TITLE "It's Been A Long Time"
PERFORMER "Jonathan Buttler"
REM COMPOSER ""
INDEX 01 35:55:40
TRACK 10 AUDIO
TITLE "Put My Love Away"
PERFORMER "Jonathan Buttler"
REM COMPOSER ""
INDEX 01 40:17:40
[свернуть]

Лог проверки качества

AUDIOCHECKER v2.0 beta (build 457) - by Dester -
~~~~~~~~~~~~~~~~~~~~~~~~~~~~~~~~~~
-=== НЕ РЕДАКТИРУЙТЕ ЭТОТ ФАЙЛ! ===-

Путь: ...\ - Put My Love Away [FC 4523]

1 -=- Jonathan Buttler - Put My Love Away.flac -=- CDDA (100%)

63184756
[свернуть]

Спектр частот

[свернуть]

Скачать Jonathan Buttler - Put My Love Away



password: sergych
[свернуть]

Контрольная сумма (хеш-сумма) архива

MD5: d6a917a6b60fcd20703adc7fc9442ded
[свернуть]
My opinion of release: 10/10
__________________
TAIFUN.Wings of Soul

Вверх
Пользователь сказал cпасибо:
TAIFUN (01.11.2017)
Похожие темы
Тема Автор Раздел Ответов Последнее сообщение
Альбом Jonathan Butler - Jonathan sergych Jazz и Blues 0 31.08.2017 01:01
Альбом Jonathan Butler - More Than Friends sergych Зарубежная Поп-Музыка 2 07.07.2017 23:45
Альбом Jonathan Butler - The Source sergych Jazz и Blues 0 05.06.2016 12:23
Альбом Jonathan Butler - Living My Dream sergych Jazz и Blues 0 08.05.2016 21:09
Релиз Jonathan Fritzen - VIP PUPOKIN Jazz и Blues 0 25.06.2009 10:41


Метки
1987 , gospel , jonathan buttler , pop , put my love away , r'n'b , smooth jazz , soul

Опции темы

Ваши права в разделе
Вы не можете создавать новые темы
Вы не можете отвечать в темах
Вы не можете прикреплять вложения
Вы не можете редактировать свои сообщения

Быстрый переход



Текущее время: 00:41. Часовой пояс GMT +3.
Powered by vBulletin® Version 3.8.10
Copyright ©2000 - 2018, vBulletin Solutions, Inc. Перевод: zCarot
© 2008 - 2017 Taifun With Song
Яндекс.Метрика