1
[Альбом] Lindsey Buckingham - Out Of The Cradle - TAIFUN With Song
TAIFUN With Song
Навигация
Вернуться   TAIFUN With Song > Music (обменник) > Rock > Pop Rock
Расширенный поиск
Pop Rock Поп-рок — жанр музыки, объединяющий элементы поп-музыки и рок-музыки. Песни характеризуются простой структурой, запоминающимися мелодиями, повторением музыкальных фраз (от попа), использованием в качестве основных инструментов электрогитар и ударных и агрессивным настроением (от рока).

А знаете ли Вы, что...
Где недавно был совершён акт каннибализма с согласия жертвы?
«В 2001 году в немецком Ротенбурге Армин Майвес поместил в интернете серию каннибальских объявлений в поисках молодого парня в возрасте от 18 до 30 лет, желающего умереть и быть съеденным. На одно из объявлений откликнулся Бернд Брандес. Он, по своему собственному согласию, был убит и частично съеден Майвесом, позже приговорённым к пожизненному заключению. На этот сюжет написана песня «Mein Teil» группы Rammstein.»
 
Опции темы

  #1
Старый 03.09.2017, 01:47
sergych
Координатор
Досье
 
Аватар для sergych
Релиз Lindsey Buckingham - Out Of The Cradle


1992 - Lindsey Buckingham - Out Of The Cradle




Исполнитель/Artist: Lindsey Buckingham
Альбом/Album: Out Of The Cradle
Год/Year: 1992
Жанр/Genre: Rock, pop rock
Страна/Country: Япония
Рекорд-лейбл/Record label: Polygram
Номер в каталоге/Catalogue #: PHCR-1177
Формат/Format: Free Lossless Audio Codec (*.flac)
Качество/Quality: Lossless
Тип рипа/RIP Type: image+.cue
Продолжительность/Length: 00:48:44
Источник/Source: Собственный рип
Размер/Size: 386.8 MB

Сканы в комплекте

Треклист

01. Instrumental Introduction To: [0:00:26.08]
02. Don't Look Down [0:02:47.70]
03. Wrong [0:04:20.60]
04. Countdown [0:03:23.17]
05. All My Sorrows [0:04:02.28]
06. Soul Drifter [0:03:29.35]
07. Instrumental Introduction To: [0:00:42.45]
08. This Is The Time [0:04:49.60]
09. You Do Or You Don't [0:03:40.20]
10. Street Of Dreams [0:04:29.32]
11. Spoken Introduction To: [0:00:46.50]
12. Surrender The Rain [0:03:39.63]
13. Doing What I Can [0:04:06.42]
14. Turn It On [0:03:51.35]
15. This Nearly Was Mine [0:01:38.08]
16. Say We'll Meet Again [0:02:29.12]
[свернуть]

youtube.com

[свернуть]

EAC лог

Exact Audio Copy V1.3 from 2. September 2016

EAC extraction logfile from 2. September 2017, 3:45

Lindsey Buckingham / Out Of The Cradle

Used drive : PLEXTOR DVDR PX-716A Adapter: 1 ID: 0

Read mode : Secure
Utilize accurate stream : Yes
Defeat audio cache : Yes
Make use of C2 pointers : No

Read offset correction : 30
Overread into Lead-In and Lead-Out : No
Fill up missing offset samples with silence : Yes
Delete leading and trailing silent blocks : No
Null samples used in CRC calculations : Yes
Used interface : Installed external ASPI interface

Used output format : User Defined Encoder
Selected bitrate : 1024 kBit/s
Quality : High
Add ID3 tag : No
Command line compressor : C:\Program Files (x86)\Exact Audio Copy\Flac\flac.exe
Additional command line options : -6 -V -T "ARTIST=%artist%" -T "TITLE=%title%" -T "ALBUM=%albumtitle%" -T "DATE=%year%" -T "TRACKNUMBER=%tracknr%" -T "GENRE=%genre%" -T "COMMENT=%comment%" -T "BAND=%albuminterpret%" -T "ALBUMARTIST=%albuminterpret%" -T "COMPOSER=%composer%" %haslyrics%--tag-from-file=LYRICS="%lyricsfile%"%haslyrics% -T "DISCNUMBER=%cdnumber%" -T "TOTALDISCS=%totalcds%" -T "TOTALTRACKS=%numtracks%" %hascover%--picture="%coverfile%"%hascover% %source% -o %dest%


TOC of the extracted CD

Track | Start | Length | Start sector | End sector
---------------------------------------------------------
1 | 0:00.37 | 0:26.08 | 37 | 1994
2 | 0:26.45 | 2:47.70 | 1995 | 14589
3 | 3:14.40 | 4:20.60 | 14590 | 34149
4 | 7:35.25 | 3:23.17 | 34150 | 49391
5 | 10:58.42 | 4:02.28 | 49392 | 67569
6 | 15:00.70 | 3:29.35 | 67570 | 83279
7 | 18:30.30 | 0:42.45 | 83280 | 86474
8 | 19:13.00 | 4:49.60 | 86475 | 108209
9 | 24:02.60 | 3:40.20 | 108210 | 124729
10 | 27:43.05 | 4:29.32 | 124730 | 144936
11 | 32:12.37 | 0:46.50 | 144937 | 148436
12 | 32:59.12 | 3:39.63 | 148437 | 164924
13 | 36:39.00 | 4:06.42 | 164925 | 183416
14 | 40:45.42 | 3:51.35 | 183417 | 200776
15 | 44:37.02 | 1:38.08 | 200777 | 208134
16 | 46:15.10 | 2:29.12 | 208135 | 219321


Range status and errors

Selected range

Filename C:\mm\Fleetwood Mac\Solo\Lindsey Buckingham\1992 - Out Of The Cradle [PHCR-1177]\Lindsey Buckingham - Out Of The Cradle.wav

Peak level 100.0 %
Extraction speed 12.3 X
Range quality 100.0 %
Test CRC AFEE399F
Copy CRC AFEE399F
Copy OK

No errors occurred

End of status report

---- CUETools DB Plugin V2.1.6

[CTDB TOCID: jxoVvtb2UxeYss0ksHEUnZUU.F4-] found
Submit result: jxoVvtb2UxeYss0ksHEUnZUU.F4- has been confirmed
Track | CTDB Status
1 | (2/2) Accurately ripped
2 | (2/2) Accurately ripped
3 | (2/2) Accurately ripped
4 | (2/2) Accurately ripped
5 | (2/2) Accurately ripped
6 | (2/2) Accurately ripped
7 | (2/2) Accurately ripped
8 | (2/2) Accurately ripped
9 | (2/2) Accurately ripped
10 | (2/2) Accurately ripped
11 | (2/2) Accurately ripped
12 | (2/2) Accurately ripped
13 | (2/2) Accurately ripped
14 | (2/2) Accurately ripped
15 | (2/2) Accurately ripped
16 | (2/2) Accurately ripped
[свернуть]

Файл CUE

REM GENRE rock
REM DATE 1992
REM DISCID DC0B6C10
REM COMMENT "ExactAudioCopy v1.3"
PERFORMER "Lindsey Buckingham"
TITLE "Out Of The Cradle"
REM COMPOSER ""
FILE "Lindsey Buckingham - Out Of The Cradle.flac" WAVE
TRACK 01 AUDIO
TITLE "Instrumental Introduction To:"
PERFORMER "Lindsey Buckingham"
REM COMPOSER ""
INDEX 00 00:00:00
INDEX 01 00:00:37
TRACK 02 AUDIO
TITLE "Don't Look Down"
PERFORMER "Lindsey Buckingham"
REM COMPOSER ""
INDEX 01 00:26:45
TRACK 03 AUDIO
TITLE "Wrong"
PERFORMER "Lindsey Buckingham"
REM COMPOSER ""
INDEX 00 03:14:31
INDEX 01 03:14:40
TRACK 04 AUDIO
TITLE "Countdown"
PERFORMER "Lindsey Buckingham"
REM COMPOSER ""
INDEX 00 07:34:16
INDEX 01 07:35:25
TRACK 05 AUDIO
TITLE "All My Sorrows"
PERFORMER "Lindsey Buckingham"
REM COMPOSER ""
INDEX 00 10:57:71
INDEX 01 10:58:42
TRACK 06 AUDIO
TITLE "Soul Drifter"
PERFORMER "Lindsey Buckingham"
REM COMPOSER ""
INDEX 00 15:00:63
INDEX 01 15:00:70
TRACK 07 AUDIO
TITLE "Instrumental Introduction To:"
PERFORMER "Lindsey Buckingham"
REM COMPOSER ""
INDEX 00 18:29:06
INDEX 01 18:30:30
TRACK 08 AUDIO
TITLE "This Is The Time"
PERFORMER "Lindsey Buckingham"
REM COMPOSER ""
INDEX 01 19:13:00
TRACK 09 AUDIO
TITLE "You Do Or You Don't"
PERFORMER "Lindsey Buckingham"
REM COMPOSER ""
INDEX 00 24:02:58
INDEX 01 24:02:60
TRACK 10 AUDIO
TITLE "Street Of Dreams"
PERFORMER "Lindsey Buckingham"
REM COMPOSER ""
INDEX 00 27:40:66
INDEX 01 27:43:05
TRACK 11 AUDIO
TITLE "Spoken Introduction To:"
PERFORMER "Lindsey Buckingham"
REM COMPOSER ""
INDEX 00 32:11:43
INDEX 01 32:12:37
TRACK 12 AUDIO
TITLE "Surrender The Rain"
PERFORMER "Lindsey Buckingham"
REM COMPOSER ""
INDEX 01 32:59:12
TRACK 13 AUDIO
TITLE "Doing What I Can"
PERFORMER "Lindsey Buckingham"
REM COMPOSER ""
INDEX 00 36:38:61
INDEX 01 36:39:00
TRACK 14 AUDIO
TITLE "Turn It On"
PERFORMER "Lindsey Buckingham"
REM COMPOSER ""
INDEX 00 40:45:13
INDEX 01 40:45:42
TRACK 15 AUDIO
TITLE "This Nearly Was Mine"
PERFORMER "Lindsey Buckingham"
REM COMPOSER ""
INDEX 00 44:35:63
INDEX 01 44:37:02
TRACK 16 AUDIO
TITLE "Say We'll Meet Again"
PERFORMER "Lindsey Buckingham"
REM COMPOSER ""
INDEX 01 46:15:10
[свернуть]

Лог проверки качества

AUDIOCHECKER v2.0 beta (build 457) - by Dester - [Ссылки могут видеть только зарегистрированные и активированные пользователи.]
[Only registered and activated users can see links.]
~~~~~~~~~~~~~~~~~~~~~~~~~~~~~~~~~~
-=== НЕ РЕДАКТИРУЙТЕ ЭТОТ ФАЙЛ! ===-

Путь: ...\1992 - Out Of The Cradle [PHCR-1177]

1 -=- Lindsey Buckingham - Out Of The Cradle.flac -=- CDDA (100%)

198749268
[свернуть]

Спектр частот

[свернуть]

Скачать Lindsey Buckingham - Out Of The Cradle

[Ссылки могут видеть только зарегистрированные и активированные пользователи.]
[Only registered and activated users can see links.]

password: sergych
[свернуть]

Контрольная сумма (хеш-сумма) архива

MD5: bcc927858ba66f09d1e538bb16968a37
[свернуть]
My opinion of release: 10/10
__________________
TAIFUN.Wings of Soul

Вверх
3 пользователя(ей) сказали cпасибо:
Показать список поблагодаривших
Похожие темы
Тема Автор Раздел Ответов Последнее сообщение
Альбом Lindsey Stirling - Shatter Me sergych Classical 1 27.06.2016 19:47
Альбом Lindsey Buckingham - Seeds We Sow sergych Pop Rock 0 04.04.2016 22:35
Альбом Eric Clapton - From The Cradle sergych Blues Rock 0 01.01.2014 20:03
Релиз Celeste Buckingham - Where I Belong PUPOKIN Зарубежная Поп-Музыка 0 12.12.2013 09:49
Релиз Lindsey Ray - Goodbye From California PUPOKIN Зарубежная Поп-Музыка 0 15.08.2010 14:28


Метки
1992 , lindsey buckingham , out of the cradle , pop rock , rock

Опции темы

Ваши права в разделе
Вы не можете создавать новые темы
Вы не можете отвечать в темах
Вы не можете прикреплять вложения
Вы не можете редактировать свои сообщения

Быстрый переход



Текущее время: 08:54. Часовой пояс GMT +3.
Powered by vBulletin® Version 3.8.10
Copyright ©2000 - 2018, vBulletin Solutions, Inc. Перевод: zCarot
© 2008 - 2018 Taifun With Song
Яндекс.Метрика