1
[Сборник] Diana Krall - The Very Best Of Diana Krall - TAIFUN With Song
TAIFUN With Song
Навигация
Вернуться   TAIFUN With Song > Music (обменник) > Другие направления музыки > Jazz и Blues
Расширенный поиск
Jazz и Blues Гибкая ритмика, импровизационное начало, гармонии и мелодии - все это Jazz. Blues - жизнеутверждающая музыка, рожденная из душевной боли

А знаете ли Вы, что...
Какой русский музыкальный инструмент мы называем цыганским?
«Семиструнную гитару во всём мире называют русской гитарой, а у нас также распространено название цыганская гитара.»
 
Опции темы

  #1
Старый 26.09.2013, 20:19
sergych
Координатор
Досье
 
Аватар для sergych
Релиз Diana Krall - The Very Best Of Diana Krall


2007 - Diana Krall - The Very Best Of Diana Krall




Исполнитель/Artist: Diana Krall
Альбом/Album: The Very Best Of Diana Krall
Год/Year: 2007
Жанр/Genre: Smooth Jazz, Contemporary Jazz, Vocal jazz
Страна/Country: Германия
Рекорд-лейбл/Record label: Verve / Universal Music
Номер в каталоге/Catalogue #: 0602517438095
Формат/Format: Free Lossless Audio Codec (*.flac)
Качество/Quality: Lossless
Тип рипа/RIP Type: image+.cue
Продолжительность/Length: 01:15:33
Источник/Source: Собственный рип
Размер/Size: 486.3 MB

Сканы в комплекте

Треклист

01. 'S Wonderful [0:04:26.08]
02. Peel Me A Grape [0:05:49.58]
03. Pick Yourself Up [0:03:01.13]
04. Frim Fram Sauce [0:05:00.54]
05. You Go To My Head [0:06:46.45]
06. Let's Fall In Love [0:04:18.67]
07. The Look Of Love [0:04:41.07]
08. East Of The Sun (And West Of The Moon) [0:05:45.74]
09. I've Got You Under My Skin [0:06:08.48]
10. All Or Nothing At All [0:04:32.38]
11. Only The Lonely [0:04:16.32]
12. Let's Face The Music And Dance [0:05:17.35]
13. The Heart Of Saturday Night [0:04:05.73]
14. Little Girl Blue [0:05:38.20]
15. Fly Me To The Moon [0:05:43.39]
[свернуть]

youtube.com

[свернуть]

EAC лог

Exact Audio Copy V1.3 from 2. September 2016

EAC extraction logfile from 28. October 2017, 22:43

Diana Krall / The Very Best Of Diana Krall

Used drive : ATAPI iHAS124 D Adapter: 0 ID: 2

Read mode : Secure
Utilize accurate stream : Yes
Defeat audio cache : Yes
Make use of C2 pointers : No

Read offset correction : 6
Overread into Lead-In and Lead-Out : No
Fill up missing offset samples with silence : Yes
Delete leading and trailing silent blocks : No
Null samples used in CRC calculations : Yes
Used interface : Installed external ASPI interface

Used output format : User Defined Encoder
Selected bitrate : 1024 kBit/s
Quality : High
Add ID3 tag : No
Command line compressor : C:\Program Files (x86)\Exact Audio Copy\Flac\flac.exe
Additional command line options : -6 -V -T "ARTIST=%artist%" -T "TITLE=%title%" -T "ALBUM=%albumtitle%" -T "DATE=%year%" -T "TRACKNUMBER=%tracknr%" -T "GENRE=%genre%" -T "COMMENT=%comment%" -T "BAND=%albuminterpret%" -T "ALBUMARTIST=%albuminterpret%" -T "COMPOSER=%composer%" %haslyrics%--tag-from-file=LYRICS="%lyricsfile%"%haslyrics% -T "DISCNUMBER=%cdnumber%" -T "TOTALDISCS=%totalcds%" -T "TOTALTRACKS=%numtracks%" %hascover%--picture="%coverfile%"%hascover% %source% -o %dest%


TOC of the extracted CD

Track | Start | Length | Start sector | End sector
---------------------------------------------------------
1 | 0:00.00 | 4:26.08 | 0 | 19957
2 | 4:26.08 | 5:49.58 | 19958 | 46190
3 | 10:15.66 | 3:01.13 | 46191 | 59778
4 | 13:17.04 | 5:00.54 | 59779 | 82332
5 | 18:17.58 | 6:46.45 | 82333 | 112827
6 | 25:04.28 | 4:18.67 | 112828 | 132244
7 | 29:23.20 | 4:41.07 | 132245 | 153326
8 | 34:04.27 | 5:45.74 | 153327 | 179275
9 | 39:50.26 | 6:08.48 | 179276 | 206923
10 | 45:58.74 | 4:32.38 | 206924 | 227361
11 | 50:31.37 | 4:16.32 | 227362 | 246593
12 | 54:47.69 | 5:17.35 | 246594 | 270403
13 | 60:05.29 | 4:05.73 | 270404 | 288851
14 | 64:11.27 | 5:38.20 | 288852 | 314221
15 | 69:49.47 | 5:43.39 | 314222 | 339985


Range status and errors

Selected range

Filename C:\mm\Diana Krall\2007 - The Very Best Of [0602517438095]\Diana Krall - The Very Best Of Diana Krall.wav

Peak level 99.7 %
Extraction speed 10.0 X
Range quality 99.9 %
Test CRC 664E32A2
Copy CRC 664E32A2
Copy OK

No errors occurred


AccurateRip summary

Track 1 accurately ripped (confidence 52) [E6D57B85] (AR v2)
Track 2 accurately ripped (confidence 51) [F42D30A5] (AR v2)
Track 3 accurately ripped (confidence 50) [C6B8FC2A] (AR v2)
Track 4 accurately ripped (confidence 50) [69928DDD] (AR v2)
Track 5 accurately ripped (confidence 50) [9C710D23] (AR v2)
Track 6 accurately ripped (confidence 50) [E8EC668F] (AR v2)
Track 7 accurately ripped (confidence 51) [DE957250] (AR v2)
Track 8 accurately ripped (confidence 51) [99FD580F] (AR v2)
Track 9 accurately ripped (confidence 50) [CDC2C26E] (AR v2)
Track 10 accurately ripped (confidence 50) [91661984] (AR v2)
Track 11 accurately ripped (confidence 50) [4793C20D] (AR v2)
Track 12 accurately ripped (confidence 51) [43D70413] (AR v2)
Track 13 accurately ripped (confidence 51) [FF2A9DC2] (AR v2)
Track 14 accurately ripped (confidence 50) [4BE105A3] (AR v2)
Track 15 accurately ripped (confidence 46) [476E55C9] (AR v2)

All tracks accurately ripped

End of status report

---- CUETools DB Plugin V2.1.6

[CTDB TOCID: fHSA_DfpYrg1efHluGS3gMRzKIs-] found
Submit result: fHSA_DfpYrg1efHluGS3gMRzKIs- has been confirmed
Track | CTDB Status
1 | (94/95) Accurately ripped
2 | (94/95) Accurately ripped
3 | (94/95) Accurately ripped
4 | (94/95) Accurately ripped
5 | (95/95) Accurately ripped
6 | (94/95) Accurately ripped
7 | (94/95) Accurately ripped
8 | (95/95) Accurately ripped
9 | (93/95) Accurately ripped
10 | (93/95) Accurately ripped
11 | (95/95) Accurately ripped
12 | (94/95) Accurately ripped
13 | (94/95) Accurately ripped
14 | (94/95) Accurately ripped
15 | (93/95) Accurately ripped
[свернуть]

Файл CUE

REM GENRE Jazz
REM DATE 2007
REM DISCID E711B50F
REM COMMENT "ExactAudioCopy v1.3"
PERFORMER "Diana Krall"
TITLE "The Very Best Of Diana Krall"
REM COMPOSER ""
FILE "Diana Krall - The Very Best Of Diana Krall.flac" WAVE
TRACK 01 AUDIO
TITLE "'S Wonderful"
PERFORMER "Diana Krall"
REM COMPOSER ""
INDEX 01 00:00:00
TRACK 02 AUDIO
TITLE "Peel Me A Grape"
PERFORMER "Diana Krall"
REM COMPOSER ""
INDEX 00 04:24:42
INDEX 01 04:26:08
TRACK 03 AUDIO
TITLE "Pick Yourself Up"
PERFORMER "Diana Krall"
REM COMPOSER ""
INDEX 01 10:15:66
TRACK 04 AUDIO
TITLE "Frim Fram Sauce"
PERFORMER "Diana Krall"
REM COMPOSER ""
INDEX 01 13:17:04
TRACK 05 AUDIO
TITLE "You Go To My Head"
PERFORMER "Diana Krall"
REM COMPOSER ""
INDEX 00 18:17:39
INDEX 01 18:17:58
TRACK 06 AUDIO
TITLE "Let's Fall In Love"
PERFORMER "Diana Krall"
REM COMPOSER ""
INDEX 00 25:03:32
INDEX 01 25:04:28
TRACK 07 AUDIO
TITLE "The Look Of Love"
PERFORMER "Diana Krall"
REM COMPOSER ""
INDEX 00 29:23:18
INDEX 01 29:23:20
TRACK 08 AUDIO
TITLE "East Of The Sun (And West Of The Moon)"
PERFORMER "Diana Krall"
REM COMPOSER ""
INDEX 01 34:04:27
TRACK 09 AUDIO
TITLE "I've Got You Under My Skin"
PERFORMER "Diana Krall"
REM COMPOSER ""
INDEX 00 39:48:53
INDEX 01 39:50:26
TRACK 10 AUDIO
TITLE "All Or Nothing At All"
PERFORMER "Diana Krall"
REM COMPOSER ""
INDEX 00 45:58:06
INDEX 01 45:58:74
TRACK 11 AUDIO
TITLE "Only The Lonely"
PERFORMER "Diana Krall"
REM COMPOSER ""
INDEX 00 50:30:22
INDEX 01 50:31:37
TRACK 12 AUDIO
TITLE "Let's Face The Music And Dance"
PERFORMER "Diana Krall"
REM COMPOSER ""
INDEX 00 54:47:14
INDEX 01 54:47:69
TRACK 13 AUDIO
TITLE "The Heart Of Saturday Night"
PERFORMER "Diana Krall"
REM COMPOSER ""
INDEX 00 60:05:21
INDEX 01 60:05:29
TRACK 14 AUDIO
TITLE "Little Girl Blue"
PERFORMER "Diana Krall"
REM COMPOSER ""
INDEX 00 64:09:44
INDEX 01 64:11:27
TRACK 15 AUDIO
TITLE "Fly Me To The Moon"
PERFORMER "Diana Krall"
REM COMPOSER ""
INDEX 00 69:49:08
INDEX 01 69:49:47
[свернуть]

Лог проверки качества

AUDIOCHECKER v2.0 beta (build 457) - by Dester - [Ссылки могут видеть только зарегистрированные и активированные пользователи.]
[Only registered and activated users can see links.]
~~~~~~~~~~~~~~~~~~~~~~~~~~~~~~~~~~
-=== НЕ РЕДАКТИРУЙТЕ ЭТОТ ФАЙЛ! ===-

Путь: ...\2007 - The Very Best Of [0602517438095]

1 -=- Diana Krall - The Very Best Of Diana Krall.flac -=- CDDA (100%)

177083876
[свернуть]

Спектр частот

[свернуть]

Скачать Diana Krall - The Very Best Of Diana Krall

[Ссылки могут видеть только зарегистрированные и активированные пользователи.]
[Only registered and activated users can see links.]

password: sergych
[свернуть]

Контрольная сумма (хеш-сумма) архива

MD5: 421e0306b156bd79dfb067a832d80598
[свернуть]
My opinion of release: 10/10
__________________
TAIFUN.Wings of Soul


Последний раз редактировалось sergych, 29.10.2017 в 21:24. Причина: замена собственным рипом
Вверх
4 пользователя(ей) сказали cпасибо:
Показать список поблагодаривших
  #2
Старый 27.09.2013, 23:13
sergych
Координатор
Досье
 
Аватар для sergych
Релиз The Very Best Of Diana Krall {Canadian release}


2007 - The Very Best Of Diana Krall {Canadian release}




Исполнитель/Artist: Diana Krall
Альбом/Album: The Very Best Of Diana Krall {Canadian release}
Год/Year: 2007
Жанр/Genre: Smooth Jazz, Contemporary Jazz, Vocal jazz
Страна/Country: Канада
Рекорд-лейбл/Record label: Verve
Номер в каталоге/Catalogue #: 0251743390
Формат/Format: Free Lossless Audio Codec (*.flac)
Качество/Quality: Lossless
Тип рипа/RIP Type: image+.cue
Продолжительность/Length: 01:19:00
Источник/Source: Из интернета
Размер/Size: 490.4 MB

Сканы в комплекте

Треклист

01 - 'S Wonderful
02 - Peel Me A Grape
03 - Pick Yourself Up
04 - Frim Fram Sauce
05 - You Go To My Head
06 - Let's Fall In Love
07 - The Look Of Love
08 - East Of The Sun (And West Of The Moon)
09 - I've Got You Under My Skin
10 - All Or Nothing At All
11 - Only The Lonely
12 - Let's Face The Music And Dance
13 - The Heart Of Saturday Night
14 - Little Girl Blue
15 - Fly Me To The Moon

Canadian Bonus Track:
16 - Narrow Daylight
[свернуть]

youtube.com

[свернуть]

EAC лог

Exact Audio Copy V0.99 prebeta 5 from 4. May 2009

EAC extraction logfile from 2. December 2010, 9:46

Diana Krall / The Very Best of Diana Krall

Used drive : HL-DT-STDVD-RAM GSA-H54N Adapter: 0 ID: 0

Read mode : Secure
Utilize accurate stream : Yes
Defeat audio cache : Yes
Make use of C2 pointers : No

Read offset correction : 102
Overread into Lead-In and Lead-Out : No
Fill up missing offset samples with silence : Yes
Delete leading and trailing silent blocks : No
Null samples used in CRC calculations : Yes
Used interface : Native Win32 interface for Win NT & 2000

Used output format : User Defined Encoder
Selected bitrate : 320 kBit/s
Quality : High
Add ID3 tag : No
Command line compressor : C:\Program Files\Exact Audio Copy\Flac\flac.exe
Additional command line options : -8 -V %s


TOC of the extracted CD

Track | Start | Length | Start sector | End sector
---------------------------------------------------------
1 | 0:00.00 | 4:25.34 | 0 | 19908
2 | 4:25.34 | 5:49.59 | 19909 | 46142
3 | 10:15.18 | 3:01.11 | 46143 | 59728
4 | 13:16.29 | 5:00.56 | 59729 | 82284
5 | 18:17.10 | 6:46.42 | 82285 | 112776
6 | 25:03.52 | 4:18.69 | 112777 | 132195
7 | 29:22.46 | 4:41.05 | 132196 | 153275
8 | 34:03.51 | 5:46.00 | 153276 | 179225
9 | 39:49.51 | 6:08.50 | 179226 | 206875
10 | 45:58.26 | 4:32.37 | 206876 | 227312
11 | 50:30.63 | 4:16.31 | 227313 | 246543
12 | 54:47.19 | 5:17.35 | 246544 | 270353
13 | 60:04.54 | 4:06.00 | 270354 | 288803
14 | 64:10.54 | 5:38.18 | 288804 | 314171
15 | 69:48.72 | 5:40.21 | 314172 | 339692
16 | 75:29.18 | 3:31.42 | 339693 | 355559


Range status and errors

Selected range

Filename C:\EAC\Diana Krall - The Very Best of Diana Krall.wav

Peak level 99.7 %
Range quality 100.0 %
Test CRC 74834EEF
Copy CRC 74834EEF
Copy OK

No errors occurred


AccurateRip summary

Track 1 accurately ripped (confidence 14) [8385E54E]
Track 2 accurately ripped (confidence 14) [13AF9F35]
Track 3 accurately ripped (confidence 14) [0E454F83]
Track 4 accurately ripped (confidence 14) [A7217CF6]
Track 5 accurately ripped (confidence 14) [B87556E7]
Track 6 accurately ripped (confidence 14) [FBD9B443]
Track 7 accurately ripped (confidence 14) [E0D47227]
Track 8 accurately ripped (confidence 14) [33BC3289]
Track 9 accurately ripped (confidence 14) [6F49EA80]
Track 10 accurately ripped (confidence 14) [2F86F2A6]
Track 11 accurately ripped (confidence 14) [BD4950FF]
Track 12 accurately ripped (confidence 14) [2DD10C8F]
Track 13 accurately ripped (confidence 14) [D1822750]
Track 14 accurately ripped (confidence 14) [E9A6DCC7]
Track 15 accurately ripped (confidence 13) [EDC7111B]
Track 16 accurately ripped (confidence 14) [EA19910A]

All tracks accurately ripped

End of status report
[свернуть]

Файл CUE

REM GENRE Jazz
REM DATE 2007
REM DISCID EA128410
REM COMMENT "ExactAudioCopy v0.99pb5"
PERFORMER "Diana Krall"
TITLE "The Very Best of Diana Krall"
FILE "Diana Krall - The Very Best of Diana Krall.flac" WAVE
TRACK 01 AUDIO
TITLE "'S Wonderful"
PERFORMER "Diana Krall"
INDEX 01 00:00:00
TRACK 02 AUDIO
TITLE "Peel Me a Grape"
PERFORMER "Diana Krall"
INDEX 00 04:23:67
INDEX 01 04:25:34
TRACK 03 AUDIO
TITLE "Pick Yourself Up"
PERFORMER "Diana Krall"
INDEX 01 10:15:18
TRACK 04 AUDIO
TITLE "Frim Fram Sauce"
PERFORMER "Diana Krall"
INDEX 01 13:16:29
TRACK 05 AUDIO
TITLE "You Go to My Head"
PERFORMER "Diana Krall"
INDEX 00 18:16:51
INDEX 01 18:17:10
TRACK 06 AUDIO
TITLE "Let's Fall in Love"
PERFORMER "Diana Krall"
INDEX 00 25:02:49
INDEX 01 25:03:52
TRACK 07 AUDIO
TITLE "The Look of Love"
PERFORMER "Diana Krall"
INDEX 00 29:22:34
INDEX 01 29:22:46
TRACK 08 AUDIO
TITLE "East of the Sun (And West of the Moon)"
PERFORMER "Diana Krall"
INDEX 01 34:03:51
TRACK 09 AUDIO
TITLE "I've Got You Under My Skin"
PERFORMER "Diana Krall"
INDEX 00 39:48:00
INDEX 01 39:49:51
TRACK 10 AUDIO
TITLE "All or Nothing at All"
PERFORMER "Diana Krall"
INDEX 00 45:57:27
INDEX 01 45:58:26
TRACK 11 AUDIO
TITLE "Only the Lonely"
PERFORMER "Diana Krall"
INDEX 00 50:29:43
INDEX 01 50:30:63
TRACK 12 AUDIO
TITLE "Let's Face the Music and Dance"
PERFORMER "Diana Krall"
INDEX 00 54:46:20
INDEX 01 54:47:19
TRACK 13 AUDIO
TITLE "The Heart of Saturday Night"
PERFORMER "Diana Krall"
INDEX 00 60:04:08
INDEX 01 60:04:54
TRACK 14 AUDIO
TITLE "Little Girl Blue"
PERFORMER "Diana Krall"
INDEX 00 64:08:68
INDEX 01 64:10:54
TRACK 15 AUDIO
TITLE "Fly Me to the Moon"
PERFORMER "Diana Krall"
INDEX 00 69:48:25
INDEX 01 69:48:72
TRACK 16 AUDIO
TITLE "Narrow Daylight"
PERFORMER "Diana Krall"
INDEX 00 75:27:49
INDEX 01 75:29:18
[свернуть]

Лог проверки качества

AUDIOCHECKER v2.0 beta (build 457) - by Dester - [Ссылки могут видеть только зарегистрированные и активированные пользователи.]
[Only registered and activated users can see links.]
~~~~~~~~~~~~~~~~~~~~~~~~~~~~~~~~~~
-=== НЕ РЕДАКТИРУЙТЕ ЭТОТ ФАЙЛ! ===-

Путь: ...\2007 - The Very Best Of Diana Krall {Verve 0251743390, Canada}

1 -=- Diana Krall - The Very Best of Diana Krall.flac -=- CDDA (100%)

200152548
[свернуть]

Скачать Diana Krall - The Very Best Of Diana Krall

[Ссылки могут видеть только зарегистрированные и активированные пользователи.]
[Only registered and activated users can see links.]

password: sergych
[свернуть]
My opinion of release: 10/10
__________________
TAIFUN.Wings of Soul

Вверх
3 пользователя(ей) сказали cпасибо:
Показать список поблагодаривших
  #3
Старый 29.10.2017, 21:26
sergych
Координатор
Досье
 
Аватар для sergych
По умолчанию Re: Diana Krall - The Very Best Of Diana Krall

заменил инетовского потрекового европейца в 1-м сообщении собственным рипом
__________________
TAIFUN.Wings of Soul

Вверх
Пользователь сказал cпасибо:
TAIFUN (31.10.2017)
Похожие темы
Тема Автор Раздел Ответов Последнее сообщение
Альбом Diana Krall - When I Look In Your Eyes sergych Jazz и Blues 1 13.01.2016 18:56
Альбом Diana Krall - The Look Of Love sergych Jazz и Blues 1 15.03.2014 14:16
Альбом Diana Krall - From This Moment On sergych Jazz и Blues 0 25.09.2013 21:37
Сборник Diana Krall - Christmas Songs sergych Jazz и Blues 0 24.09.2013 21:39
Альбом Diana Krall - Stepping Out sergych Jazz и Blues 0 23.09.2013 19:47


Метки
2007 , contemporary jazz , diana krall , smooth jazz , the very best of diana krall [deluxe edition] , vocal jazz

Опции темы

Ваши права в разделе
Вы не можете создавать новые темы
Вы не можете отвечать в темах
Вы не можете прикреплять вложения
Вы не можете редактировать свои сообщения

Быстрый переход



Текущее время: 00:46. Часовой пояс GMT +3.
Powered by vBulletin® Version 3.8.10
Copyright ©2000 - 2018, vBulletin Solutions, Inc. Перевод: zCarot
© 2008 - 2018 Taifun With Song
Яндекс.Метрика