TAIFUN With Song
Навигация
Вернуться   TAIFUN With Song > Music (обменник) > Rock > Pop Rock
Расширенный поиск
Pop Rock Поп-рок — жанр музыки, объединяющий элементы поп-музыки и рок-музыки. Песни характеризуются простой структурой, запоминающимися мелодиями, повторением музыкальных фраз (от попа), использованием в качестве основных инструментов электрогитар и ударных и агрессивным настроением (от рока).

А знаете ли Вы, что...
В какую группу взяли гитариста главным образом для того, чтобы он мог покупать спиртное остальным музыкантам?
«Когда Декстер Холланд и Грег Крисел, будучи учениками выпускного класса школы, создали группу Offspring, они пригласили в неё гитариста Кевина «Нудлс» Вассермана. Тот был старше на три года, работал школьным уборщиком и уже имел опыт игры в рок-группе. Но главной причиной приглашения стало то, что Вассерман был совершеннолетним и мог покупать спиртное Холланду и Криселу.»
 
Опции темы

  #1
Старый 11.06.2013, 21:50
aheron
Релизёр
Досье
 
Аватар для aheron
По умолчанию Alison Moyet - Raindancing


Alison Moyet - Raindancing (1987)




Исполнитель/Artist: Alison Moyet
Альбом/Album: Raindancing
Год/Year: 1987
Жанр/Genre: Pop/Rock
Страна/Country: UK
Рекорд-лейбл/Record label: CBS Records/CBS|Sony Inc.. Made in Japan.
Номер в каталоге/Catalogue #: CBS 450152 2/DIDP 10577
Формат/Format: Free Lossless Audio Codec (*.flac)
Качество/Quality: Lossless
Тип рипа/RIP Type: image+.cue


Продолжительность/Length: 00:39:56
Источник/Source: Из интернета
Размер/Size: 397 MB

Сканы в комплекте

Треклист

01. Alison Moyet - Weak In The Presence Of Beauty [3:48]
02. Alison Moyet - Ordinary Girl [3:29]
03. Alison Moyet - You Got Me Wrong [4:07]
04. Alison Moyet - Without You [3:30]
05. Alison Moyet - Sleep Like Breathing [4:22]
06. Alison Moyet - Is This Love? [4:02]
07. Alison Moyet - Blow Wind Blow [5:49]
08. Alison Moyet - Glorious Love [4:23]
09. Alison Moyet - When I Say (No Giveaway) [2:57]
10. Alison Moyet - Stay [3:29]
---------------------------
Total time: [39:56]
[свернуть]

EAC лог

Exact Audio Copy V1.0 beta 3 from 29. August 2011

EAC extraction logfile from 7. June 2013, 2:18

Alison Moyet / Raindancing

Used drive : PIONEER DVD-RW DVR-112D Adapter: 2 ID: 1

Read mode : Secure
Utilize accurate stream : Yes
Defeat audio cache : Yes
Make use of C2 pointers : No

Read offset correction : 48
Overread into Lead-In and Lead-Out : No
Fill up missing offset samples with silence : Yes
Delete leading and trailing silent blocks : No
Null samples used in CRC calculations : Yes
Used interface : Installed external ASPI interface

Used output format : User Defined Encoder
Selected bitrate : 1024 kBit/s
Quality : High
Add ID3 tag : No
Command line compressor : C:\Program Files (x86)\Exact Audio Copy\Flac\flac.exe
Additional command line options : -8 -V -T "Date=%year%" -T "Genre=%genre%" -T "COMMENT=ripped by bvstudio®" %source%


TOC of the extracted CD

Track | Start | Length | Start sector | End sector
---------------------------------------------------------
1 | 0:00.00 | 3:48.35 | 0 | 17134
2 | 3:48.35 | 3:28.65 | 17135 | 32799
3 | 7:17.25 | 4:06.55 | 32800 | 51304
4 | 11:24.05 | 3:29.52 | 51305 | 67031
5 | 14:53.57 | 4:22.18 | 67032 | 86699
6 | 19:16.00 | 4:02.15 | 86700 | 104864
7 | 23:18.15 | 5:49.02 | 104865 | 131041
8 | 29:07.17 | 4:23.05 | 131042 | 150771
9 | 33:30.22 | 2:57.35 | 150772 | 164081
10 | 36:27.57 | 3:28.60 | 164082 | 179741


Range status and errors

Selected range

Filename F:\Alison Moyet\1987 - Raindancing (1987 - Japan - 450 152 2)\Alison Moyet - Raindancing.wav

Peak level 100.0 %
Extraction speed 6.6 X
Range quality 100.0 %
Test CRC A99BFDEF
Copy CRC A99BFDEF
Copy OK

No errors occurred


AccurateRip summary

Track 1 accurately ripped (confidence 14) [4290865E] (AR v2)
Track 2 accurately ripped (confidence 14) [4F7512CE] (AR v2)
Track 3 accurately ripped (confidence 14) [DA65B5AD] (AR v2)
Track 4 accurately ripped (confidence 14) [4F802DBF] (AR v2)
Track 5 accurately ripped (confidence 14) [0A22D32B] (AR v2)
Track 6 accurately ripped (confidence 14) [B7D60A6E] (AR v2)
Track 7 accurately ripped (confidence 14) [0C959210] (AR v2)
Track 8 accurately ripped (confidence 14) [28805A0F] (AR v2)
Track 9 accurately ripped (confidence 14) [8D804B70] (AR v2)
Track 10 accurately ripped (confidence 14) [2E32DDAA] (AR v2)

All tracks accurately ripped

End of status report

---- CUETools DB Plugin V2.1.5

[CTDB TOCID: CAGpMiZNkraCAnnTH26DzLmD4Mk-] found
Submit result: CAGpMiZNkraCAnnTH26DzLmD4Mk- has been confirmed
Track | CTDB Status
1 | (29/29) Accurately ripped
2 | (29/29) Accurately ripped
3 | (29/29) Accurately ripped
4 | (29/29) Accurately ripped
5 | (29/29) Accurately ripped
6 | (29/29) Accurately ripped
7 | (28/29) Accurately ripped
8 | (29/29) Accurately ripped
9 | (29/29) Accurately ripped
10 | (29/29) Accurately ripped


==== Log checksum CACC202A1D12158AC4731583C7515E20705520B8695DE4DEB7 293882F7A40212 ====
[свернуть]

Лог проверки качества

-----------------------

DON'T MODIFY THIS FILE

-----------------------

PERFORMER: auCDtect Task Manager, ver. 1.6.0 RC1 build 1.6.0.1
Copyright (c) 2008-2010 y-soft. All rights reserved


ANALYZER: auCDtect: CD records authenticity detector, version 0.8.2
Copyright (c) 2004 Oleg Berngardt. All rights reserved.
Copyright (c) 2004 Alexander Djourik. All rights reserved.


FILE: Alison Moyet - Raindancing.flac
Size: 271918964 Hash: 56FF6B4957A603CCF2861538F64135D0 Accuracy: -m0
Conclusion: MPEG 95%
Signature: 40B3ADC3AE42BD95B537EB9732B7527DA5FFEA26
[свернуть]

Спектр частот

[свернуть]

Скачать Alison Moyet - Raindancing

Яндекс.Диск

password: aheron
[свернуть]

Вверх
Пользователь сказал cпасибо:
sergych (12.06.2013)
  #2
Старый 27.10.2017, 16:42
sergych
Координатор
Досье
 
Аватар для sergych
Релиз Re: Alison Moyet - Raindancing


1987 - Alison Moyet - Raindancing




Исполнитель/Artist: Alison Moyet
Альбом/Album: Raindancing
Год/Year: 1987
Жанр/Genre: pop, pop rock
Страна/Country: Нидерланды
Рекорд-лейбл/Record label: CBS Records
Номер в каталоге/Catalogue #: CBS 450152 2
Формат/Format: Free Lossless Audio Codec (*.flac)
Качество/Quality: Lossless
Тип рипа/RIP Type: image+.cue
Продолжительность/Length: 00:39:57
Источник/Source: Собственный рип
Размер/Size: 296.4 MB

Сканы в комплекте

Треклист

01. Weak In The Presence Of Beauty [0:03:48.35]
02. Ordinary Girl [0:03:28.65]
03. You Got Me Wrong [0:04:06.55]
04. Without You [0:03:29.52]
05. Sleep Like Breathing [0:04:22.18]
06. Is This Love? [0:04:02.15]
07. Blow Wind Blow [0:05:49.02]
08. Glorious Love [0:04:23.05]
09. When I Say (No Giveaway) [0:02:57.35]
10. Stay [0:03:28.60]
[свернуть]

youtube.com

[свернуть]

EAC лог

Exact Audio Copy V1.3 from 2. September 2016

EAC extraction logfile from 21. October 2017, 17:15

Alison Moyet / Raindancing

Used drive : ATAPI iHAS124 D Adapter: 0 ID: 2

Read mode : Secure
Utilize accurate stream : Yes
Defeat audio cache : Yes
Make use of C2 pointers : No

Read offset correction : 6
Overread into Lead-In and Lead-Out : No
Fill up missing offset samples with silence : Yes
Delete leading and trailing silent blocks : No
Null samples used in CRC calculations : Yes
Used interface : Installed external ASPI interface

Used output format : User Defined Encoder
Selected bitrate : 1024 kBit/s
Quality : High
Add ID3 tag : No
Command line compressor : C:\Program Files (x86)\Exact Audio Copy\Flac\flac.exe
Additional command line options : -6 -V -T "ARTIST=%artist%" -T "TITLE=%title%" -T "ALBUM=%albumtitle%" -T "DATE=%year%" -T "TRACKNUMBER=%tracknr%" -T "GENRE=%genre%" -T "COMMENT=%comment%" -T "BAND=%albuminterpret%" -T "ALBUMARTIST=%albuminterpret%" -T "COMPOSER=%composer%" %haslyrics%--tag-from-file=LYRICS="%lyricsfile%"%haslyrics% -T "DISCNUMBER=%cdnumber%" -T "TOTALDISCS=%totalcds%" -T "TOTALTRACKS=%numtracks%" %hascover%--picture="%coverfile%"%hascover% %source% -o %dest%


TOC of the extracted CD

Track | Start | Length | Start sector | End sector
---------------------------------------------------------
1 | 0:00.00 | 3:48.35 | 0 | 17134
2 | 3:48.35 | 3:28.65 | 17135 | 32799
3 | 7:17.25 | 4:06.55 | 32800 | 51304
4 | 11:24.05 | 3:29.52 | 51305 | 67031
5 | 14:53.57 | 4:22.18 | 67032 | 86699
6 | 19:16.00 | 4:02.15 | 86700 | 104864
7 | 23:18.15 | 5:49.02 | 104865 | 131041
8 | 29:07.17 | 4:23.05 | 131042 | 150771
9 | 33:30.22 | 2:57.35 | 150772 | 164081
10 | 36:27.57 | 3:28.60 | 164082 | 179741


Range status and errors

Selected range

Filename C:\mm\Alison Moyet\1987 - Raindancing [CBS 450152 2]\Alison Moyet - Raindancing.wav

Peak level 100.0 %
Extraction speed 8.0 X
Range quality 100.0 %
Test CRC DD65A3FE
Copy CRC DD65A3FE
Copy OK

No errors occurred


AccurateRip summary

Track 1 accurately ripped (confidence 79) [4290865E] (AR v2)
Track 2 accurately ripped (confidence 80) [4F7512CE] (AR v2)
Track 3 accurately ripped (confidence 80) [DA65B5AD] (AR v2)
Track 4 accurately ripped (confidence 80) [4F802DBF] (AR v2)
Track 5 accurately ripped (confidence 79) [0A22D32B] (AR v2)
Track 6 accurately ripped (confidence 80) [B7D60A6E] (AR v2)
Track 7 accurately ripped (confidence 78) [0C959210] (AR v2)
Track 8 accurately ripped (confidence 80) [28805A0F] (AR v2)
Track 9 accurately ripped (confidence 80) [8D804B70] (AR v2)
Track 10 accurately ripped (confidence 78) [2E32DDAA] (AR v2)

All tracks accurately ripped

End of status report

---- CUETools DB Plugin V2.1.6

[CTDB TOCID: CAGpMiZNkraCAnnTH26DzLmD4Mk-] found
Submit result: CAGpMiZNkraCAnnTH26DzLmD4Mk- has been confirmed
Track | CTDB Status
1 | (207/210) Accurately ripped
2 | (208/210) Accurately ripped
3 | (208/210) Accurately ripped
4 | (208/210) Accurately ripped
5 | (208/210) Accurately ripped
6 | (208/210) Accurately ripped
7 | (207/210) Accurately ripped
8 | (208/210) Accurately ripped
9 | (208/210) Accurately ripped
10 | (209/210) Accurately ripped
[свернуть]

Файл CUE

REM GENRE Pop
REM DATE 1987
REM DISCID 83095C0A
REM COMMENT "ExactAudioCopy v1.3"
PERFORMER "Alison Moyet"
TITLE "Raindancing"
REM COMPOSER ""
FILE "Alison Moyet - Raindancing.flac" WAVE
TRACK 01 AUDIO
TITLE "Weak In The Presence Of Beauty"
PERFORMER "Alison Moyet"
REM COMPOSER ""
INDEX 01 00:00:00
TRACK 02 AUDIO
TITLE "Ordinary Girl"
PERFORMER "Alison Moyet"
REM COMPOSER ""
INDEX 01 03:48:35
TRACK 03 AUDIO
TITLE "You Got Me Wrong"
PERFORMER "Alison Moyet"
REM COMPOSER ""
INDEX 01 07:17:25
TRACK 04 AUDIO
TITLE "Without You"
PERFORMER "Alison Moyet"
REM COMPOSER ""
INDEX 01 11:24:05
TRACK 05 AUDIO
TITLE "Sleep Like Breathing"
PERFORMER "Alison Moyet"
REM COMPOSER ""
INDEX 01 14:53:57
TRACK 06 AUDIO
TITLE "Is This Love?"
PERFORMER "Alison Moyet"
REM COMPOSER ""
INDEX 01 19:16:00
TRACK 07 AUDIO
TITLE "Blow Wind Blow"
PERFORMER "Alison Moyet"
REM COMPOSER ""
INDEX 01 23:18:15
TRACK 08 AUDIO
TITLE "Glorious Love"
PERFORMER "Alison Moyet"
REM COMPOSER ""
INDEX 01 29:07:17
TRACK 09 AUDIO
TITLE "When I Say (No Giveaway)"
PERFORMER "Alison Moyet"
REM COMPOSER ""
INDEX 01 33:30:22
TRACK 10 AUDIO
TITLE "Stay"
PERFORMER "Alison Moyet"
REM COMPOSER ""
INDEX 01 36:27:57
[свернуть]

Лог проверки качества

AUDIOCHECKER v2.0 beta (build 457) - by Dester -
~~~~~~~~~~~~~~~~~~~~~~~~~~~~~~~~~~
-=== НЕ РЕДАКТИРУЙТЕ ЭТОТ ФАЙЛ! ===-

Путь: ...\1987 - Raindancing [CBS 450152 2]

1 -=- Alison Moyet - Raindancing.flac -=- MPEG (95%)

108581988
[свернуть]

Спектр частот

[свернуть]

Скачать Alison Moyet - Raindancing



password: sergych
[свернуть]

Контрольная сумма (хеш-сумма) архива

MD5: e981c8e3fb5a7b24ff2bf9a737c1728c
[свернуть]
My opinion of release: 9/10

Release info RInfo

Такой же как в предыдущем релизе, только свой
__________________
TAIFUN.Wings of Soul

Вверх
2 пользователя(ей) сказали cпасибо:
burnett_s (27.10.2017), swint68 (27.10.2017)
Похожие темы
Тема Автор Раздел Ответов Последнее сообщение
Релиз Alison Moyet - Alf aheron Pop Rock 0 11.06.2013 17:50
Альбом Alison Moyet - The Minutes aheron Pop Rock 0 21.05.2013 21:21
Альбом Alison Moyet - Hometime aheron Pop Rock 0 17.05.2013 08:21
Альбом Alison Moyet - Essex aheron Pop Rock 0 17.05.2013 08:13
Альбом Alison Moyet - Hoodoo aheron Pop Rock 0 17.05.2013 06:03


Метки
1987 , alison moyet , pop/rock , raindancing

Опции темы

Ваши права в разделе
Вы не можете создавать новые темы
Вы не можете отвечать в темах
Вы не можете прикреплять вложения
Вы не можете редактировать свои сообщения

Быстрый переход



Текущее время: 05:43. Часовой пояс GMT +3.
Powered by vBulletin® Version 3.8.10
Copyright ©2000 - 2018, vBulletin Solutions, Inc. Перевод: zCarot
© 2008 - 2018 Taifun With Song
Яндекс.Метрика