TAIFUN With Song
Навигация
R&B Ссылки на музыку в этом стиле

А знаете ли Вы, что...
Что поётся в самой короткой в мире песне?
«Песня английской группы Napalm Death "You Suffer" длится 1,316 секунды и считается самой короткой в мире. В ней поётся только одна фраза: "You suffer — but why?" («Вы страдаете — но зачем?»), и её очень трудно разобрать. Сначала песня была издана на альбоме Scum, а в 1989 году как сингл на отдельном диске.»
 
Опции темы

  #1
Старый 21.10.2015, 22:26
sergych
Координатор
Досье
 
Аватар для sergych
Релиз Mariah Carey - Music Box


1993 - Mariah Carey - Music Box




Исполнитель/Artist: Mariah Carey
Альбом/Album: Music Box
Год/Year: 1993
Жанр/Genre: R&B, soul, pop, dance-pop
Страна/Country: Япония
Рекорд-лейбл/Record label: Sony Music
Номер в каталоге/Catalogue #: SRCS 6819
Формат/Format: Free Lossless Audio Codec (*.flac)
Качество/Quality: Lossless
Тип рипа/RIP Type: image+.cue
Продолжительность/Length: 00:47:28
Источник/Source: Собственный рип
Размер/Size: 402.8 MB

Сканы в комплекте

Треклист

01. Dreamlover [0:03:54.27]
02. Hero [0:04:19.53]
03. Anytime You Need A Friend [0:04:26.25]
04. Music Box [0:04:57.62]
05. Now That I Know [0:04:19.13]
06. Never Forget You [0:03:46.37]
07. Without You [0:03:36.25]
08. Just To Hold You Once Again [0:03:59.00]
09. I've Been Thinking About You [0:04:48.35]
10. All I've Ever Wanted [0:03:52.10]
11. Everything Fades Away [0:05:28.10]
[свернуть]

youtube.com

[свернуть]

Исполнители/Performers

Mariah Carey – lead vocals, background vocals
Walter Afanasieff – keyboards, additional keyboards, synthesizers
Dave Hall – synthesizers, keyboards, rhythm programming
David Cole – keyboards
Babyface – keyboards, percussion, background vocals
Michael Landau – guitars
Kayo – bass
Robert Clivillés – drums, percussion
Cindy Mizelle, Kelly Price, Mark C. Rooney, Melonie Daniels, Shanrae Price – background vocals
[свернуть]

EAC лог

Exact Audio Copy V1.0 beta 3 from 29. August 2011

EAC extraction logfile from 19. October 2015, 22:50

Mariah Carey / Music Box

Used drive : ATAPI iHAS124 D Adapter: 0 ID: 2

Read mode : Secure
Utilize accurate stream : Yes
Defeat audio cache : Yes
Make use of C2 pointers : No

Read offset correction : 6
Overread into Lead-In and Lead-Out : No
Fill up missing offset samples with silence : Yes
Delete leading and trailing silent blocks : No
Null samples used in CRC calculations : Yes
Used interface : Installed external ASPI interface

Used output format : User Defined Encoder
Selected bitrate : 1024 kBit/s
Quality : High
Add ID3 tag : No
Command line compressor : C:\Program Files (x86)\Exact Audio Copy\Flac\flac.exe
Additional command line options : -6 -V -T "ARTIST=%artist%" -T "TITLE=%title%" -T "ALBUM=%albumtitle%" -T "DATE=%year%" -T "TRACKNUMBER=%tracknr%" -T "GENRE=%genre%" -T "COMMENT=%comment%" -T "BAND=%albuminterpret%" -T "COMPOSER=%composer%" %haslyrics%--tag-from-file=LYRICS="%lyricsfile%"%haslyrics% -T "DISCNUMBER=%cdnumber%" -T "TOTALDISCS=%totalcds%" -T "TOTALTRACKS=%numtracks%" %hascover%--picture="%coverfile%"%hascover% %source% -o %dest%


TOC of the extracted CD

Track | Start | Length | Start sector | End sector
---------------------------------------------------------
1 | 0:00.00 | 3:54.27 | 0 | 17576
2 | 3:54.27 | 4:19.53 | 17577 | 37054
3 | 8:14.05 | 4:26.25 | 37055 | 57029
4 | 12:40.30 | 4:57.62 | 57030 | 79366
5 | 17:38.17 | 4:19.13 | 79367 | 98804
6 | 21:57.30 | 3:46.37 | 98805 | 115791
7 | 25:43.67 | 3:36.25 | 115792 | 132016
8 | 29:20.17 | 3:59.00 | 132017 | 149941
9 | 33:19.17 | 4:48.35 | 149942 | 171576
10 | 38:07.52 | 3:52.10 | 171577 | 188986
11 | 41:59.62 | 5:28.10 | 188987 | 213596


Range status and errors

Selected range

Filename C:\mm\Mariah Carey\1993 - Music Box [SRCS 6819]\Mariah Carey - Music Box.wav

Peak level 99.1 %
Extraction speed 8.5 X
Range quality 100.0 %
Test CRC BB162091
Copy CRC BB162091
Copy OK

No errors occurred


AccurateRip summary

Track 1 accurately ripped (confidence 17) [C3E9DADD] (AR v2)
Track 2 accurately ripped (confidence 17) [A3336AB0] (AR v2)
Track 3 accurately ripped (confidence 17) [42456308] (AR v2)
Track 4 accurately ripped (confidence 17) [A8B21A69] (AR v2)
Track 5 accurately ripped (confidence 17) [C774D610] (AR v2)
Track 6 accurately ripped (confidence 17) [3FB363BD] (AR v2)
Track 7 accurately ripped (confidence 17) [735F7FC5] (AR v2)
Track 8 accurately ripped (confidence 17) [8B0C8FEC] (AR v2)
Track 9 accurately ripped (confidence 17) [ED168387] (AR v2)
Track 10 accurately ripped (confidence 17) [06F8F376] (AR v2)
Track 11 accurately ripped (confidence 17) [02455C0F] (AR v2)

All tracks accurately ripped

End of status report
[свернуть]

Файл CUE

REM GENRE Pop
REM DATE 1993
REM DISCID 850B1F0B
REM COMMENT "ExactAudioCopy v1.0b3"
PERFORMER "Mariah Carey"
TITLE "Music Box"
FILE "Mariah Carey - Music Box.flac" WAVE
TRACK 01 AUDIO
TITLE "Dreamlover"
PERFORMER "Mariah Carey"
INDEX 01 00:00:00
TRACK 02 AUDIO
TITLE "Hero"
PERFORMER "Mariah Carey"
INDEX 01 03:54:27
TRACK 03 AUDIO
TITLE "Anytime You Need A Friend"
PERFORMER "Mariah Carey"
INDEX 01 08:14:05
TRACK 04 AUDIO
TITLE "Music Box"
PERFORMER "Mariah Carey"
INDEX 01 12:40:30
TRACK 05 AUDIO
TITLE "Now That I Know"
PERFORMER "Mariah Carey"
INDEX 01 17:38:17
TRACK 06 AUDIO
TITLE "Never Forget You"
PERFORMER "Mariah Carey"
INDEX 01 21:57:30
TRACK 07 AUDIO
TITLE "Without You"
PERFORMER "Mariah Carey"
INDEX 01 25:43:67
TRACK 08 AUDIO
TITLE "Just To Hold You Once Again"
PERFORMER "Mariah Carey"
INDEX 00 29:19:17
INDEX 01 29:20:17
TRACK 09 AUDIO
TITLE "I've Been Thinking About You"
PERFORMER "Mariah Carey"
INDEX 01 33:19:17
TRACK 10 AUDIO
TITLE "All I've Ever Wanted"
PERFORMER "Mariah Carey"
INDEX 01 38:07:52
TRACK 11 AUDIO
TITLE "Everything Fades Away"
PERFORMER "Mariah Carey"
INDEX 01 41:59:62
[свернуть]

Лог проверки качества

AUDIOCHECKER v2.0 beta (build 457) - by Dester -
~~~~~~~~~~~~~~~~~~~~~~~~~~~~~~~~~~
-=== НЕ РЕДАКТИРУЙТЕ ЭТОТ ФАЙЛ! ===-

Путь: ...\1993 - Music Box [SRCS 6819]

1 -=- Mariah Carey - Music Box.flac -=- CDDA (100%)

209768980
[свернуть]

Спектр частот

[свернуть]

Скачать Mariah Carey - Music Box



password: sergych
[свернуть]
My opinion of release: 10/10
__________________
TAIFUN.Wings of Soul


Последний раз редактировалось sergych, 26.03.2017 в 12:14. Причина: перезаливка
Вверх
4 пользователя(ей) сказали cпасибо:
Показать список поблагодаривших
Похожие темы
Тема Автор Раздел Ответов Последнее сообщение
Сборник Mariah Carey - #1's sergych R&B 1 14.10.2017 22:35
Альбом Mariah Carey - Butterfly sergych R&B 1 13.10.2017 18:07
Альбом Mariah Carey - Mariah Carey sergych R&B 0 17.09.2015 19:37
Альбом Mariah Carey - E=MC2 LUСIAN R&B 0 19.04.2008 23:25


Метки
1993 , dance-pop , mariah carey , music box , pop , r&b , soul

Опции темы

Ваши права в разделе
Вы не можете создавать новые темы
Вы не можете отвечать в темах
Вы не можете прикреплять вложения
Вы не можете редактировать свои сообщения

Быстрый переход



Текущее время: 20:34. Часовой пояс GMT +3.
Powered by vBulletin® Version 3.8.10
Copyright ©2000 - 2018, vBulletin Solutions, Inc. Перевод: zCarot
© 2008 - 2018 Taifun With Song
Яндекс.Метрика