TAIFUN With Song
Навигация
Jazz и Blues Гибкая ритмика, импровизационное начало, гармонии и мелодии - все это Jazz. Blues - жизнеутверждающая музыка, рожденная из душевной боли

А знаете ли Вы, что...
Какой отработанный медицинский материал использовался советскими изготовителями кустарных пластинок?
«В СССР для изготовления кустарных пластинок, на которые записывалась нелегальная музыка, широко использовали старые рентгеновские снимки. Их называли «пластинки на костях» или «пластинки на рёбрах». Этот материал обходился бесплатно, медперсонал даже благодарил тех, кто помогал разгружать архивы.»
 
Опции темы

  #1
Старый 24.04.2013, 07:03
sergych
Координатор
Досье
 
Аватар для sergych
Релиз Oscar Peterson - The Composer


2001 - Oscar Peterson - The Composer




Исполнитель/Artist: Oscar Peterson
Альбом/Album: The Composer
Год/Year: 2001
Жанр/Genre: jazz, swing
Страна/Country: Германия
Рекорд-лейбл/Record label: Pablo Records / Fantasy
Номер в каталоге/Catalogue #: 00025218097024
Формат/Format: Free Lossless Audio Codec (*.flac)
Качество/Quality: Lossless
Тип рипа/RIP Type: image+.cue
Продолжительность/Length: 01:02:21
Источник/Source: Собственный рип
Размер/Size: 344.2 MB

Сканы в комплекте

Треклист

01. Jubliation [0:03:56.65] (from album "A Royal Wedding Suite")
02. Lady Di's Waltz [0:05:01.62] (from album "A Royal Wedding Suite")
03. Night Child [0:11:32.30] (from album "Night Child")
04. L'impossible [0:06:02.70] (from album "If You Could See Me Now")
05. City Lights [0:07:24.53] (from album "Oscar Peterson Live!")
06. The Bach Suite: Allegro [0:10:06.20] (from album "Oscar Peterson Live!")
07. If You Only Knew [0:08:15.60] (from album "Oscar Peterson Live!")
08. Hogtown Blues [0:06:37.57] (from album "Oscar Peterson in Russia")
09. Place St. Henri [0:03:22.55] (from album "Oscar Peterson in Russia")
[свернуть]

youtube.com

[свернуть]

Исполнители/Performers

Oscar Peterson - piano
Joe Pass - guitar(3, 5-7)
Niels-Henning Orsted Pedersen - bass (3)
Louis Bellson - drums (3)
David Young - bass (5-7)
Martin Drew - drums (4-7)
[свернуть]

EAC лог

Exact Audio Copy V1.3 from 2. September 2016

EAC extraction logfile from 12. July 2018, 12:39

Oscar Peterson / The Composer

Used drive : ATAPI iHAS124 D Adapter: 0 ID: 2

Read mode : Secure
Utilize accurate stream : Yes
Defeat audio cache : Yes
Make use of C2 pointers : No

Read offset correction : 6
Overread into Lead-In and Lead-Out : No
Fill up missing offset samples with silence : Yes
Delete leading and trailing silent blocks : No
Null samples used in CRC calculations : Yes
Used interface : Installed external ASPI interface

Used output format : User Defined Encoder
Selected bitrate : 1024 kBit/s
Quality : High
Add ID3 tag : No
Command line compressor : C:\Program Files (x86)\Exact Audio Copy\Flac\flac.exe
Additional command line options : -6 -V -T "ARTIST=%artist%" -T "TITLE=%title%" -T "ALBUM=%albumtitle%" -T "DATE=%year%" -T "TRACKNUMBER=%tracknr%" -T "GENRE=%genre%" -T "COMMENT=%comment%" -T "BAND=%albuminterpret%" -T "ALBUMARTIST=%albuminterpret%" -T "COMPOSER=%composer%" %haslyrics%--tag-from-file=LYRICS="%lyricsfile%"%haslyrics% -T "DISCNUMBER=%cdnumber%" -T "TOTALDISCS=%totalcds%" -T "TOTALTRACKS=%numtracks%" %hascover%--picture="%coverfile%"%hascover% %source% -o %dest%


TOC of the extracted CD

Track | Start | Length | Start sector | End sector
---------------------------------------------------------
1 | 0:00.00 | 3:56.65 | 0 | 17764
2 | 3:56.65 | 5:01.62 | 17765 | 40401
3 | 8:58.52 | 11:32.30 | 40402 | 92331
4 | 20:31.07 | 6:02.70 | 92332 | 119551
5 | 26:34.02 | 7:24.53 | 119552 | 152904
6 | 33:58.55 | 10:06.20 | 152905 | 198374
7 | 44:05.00 | 8:15.60 | 198375 | 235559
8 | 52:20.60 | 6:37.57 | 235560 | 265391
9 | 58:58.42 | 3:22.55 | 265392 | 280596


Range status and errors

Selected range

Filename C:\mm\Oscar Peterson\1974(2001) - The Composer [00025218097024]\Oscar Peterson - The Composer.wav

Peak level 92.6 %
Extraction speed 1.8 X
Range quality 99.9 %
Test CRC 250573B1
Copy CRC 250573B1
Copy OK

No errors occurred

End of status report

---- CUETools DB Plugin V2.1.6

[CTDB TOCID: mXiSzmux6ZVUHUepBA_NZcwKfGs-] found
Submit result: mXiSzmux6ZVUHUepBA_NZcwKfGs- has been confirmed
Track | CTDB Status
1 | (6/6) Accurately ripped
2 | (6/6) Accurately ripped
3 | (6/6) Accurately ripped
4 | (6/6) Accurately ripped
5 | (6/6) Accurately ripped
6 | (6/6) Accurately ripped
7 | (6/6) Accurately ripped
8 | (6/6) Accurately ripped
9 | (6/6) Accurately ripped
[свернуть]

Файл CUE

REM GENRE Jazz
REM DATE 1974
REM DISCID 650E9D09
REM COMMENT "ExactAudioCopy v1.3"
PERFORMER "Oscar Peterson"
TITLE "The Composer"
REM COMPOSER ""
FILE "Oscar Peterson - The Composer.flac" WAVE
TRACK 01 AUDIO
TITLE "Jubliation"
PERFORMER "Oscar Peterson"
REM COMPOSER ""
INDEX 01 00:00:00
TRACK 02 AUDIO
TITLE "Lady Di's Waltz"
PERFORMER "Oscar Peterson"
REM COMPOSER ""
INDEX 00 03:55:45
INDEX 01 03:56:65
TRACK 03 AUDIO
TITLE "Night Child"
PERFORMER "Oscar Peterson"
REM COMPOSER ""
INDEX 00 08:56:12
INDEX 01 08:58:52
TRACK 04 AUDIO
TITLE "L'impossible"
PERFORMER "Oscar Peterson"
REM COMPOSER ""
INDEX 00 20:28:47
INDEX 01 20:31:07
TRACK 05 AUDIO
TITLE "City Lights"
PERFORMER "Oscar Peterson"
REM COMPOSER ""
INDEX 00 26:32:02
INDEX 01 26:34:02
TRACK 06 AUDIO
TITLE "The Bach Suite: Allegro"
PERFORMER "Oscar Peterson"
REM COMPOSER ""
INDEX 00 33:58:20
INDEX 01 33:58:55
TRACK 07 AUDIO
TITLE "If You Only Knew"
PERFORMER "Oscar Peterson"
REM COMPOSER ""
INDEX 00 44:04:72
INDEX 01 44:05:00
TRACK 08 AUDIO
TITLE "Hogtown Blues"
PERFORMER "Oscar Peterson"
REM COMPOSER ""
INDEX 00 52:18:27
INDEX 01 52:20:60
TRACK 09 AUDIO
TITLE "Place St. Henri"
PERFORMER "Oscar Peterson"
REM COMPOSER ""
INDEX 00 58:58:40
INDEX 01 58:58:42
[свернуть]

Лог проверки качества

AUDIOCHECKER v2.0 beta (build 457) - by Dester -
~~~~~~~~~~~~~~~~~~~~~~~~~~~~~~~~~~
-=== НЕ РЕДАКТИРУЙТЕ ЭТОТ ФАЙЛ! ===-

Путь: ...\1974(2001) - The Composer [00025218097024]

1 -=- Oscar Peterson - The Composer.flac -=- CDDA (100%)

110336596
[свернуть]

Скачать Oscar Peterson - The Composer



password: sergych
[свернуть]

Контрольная сумма (хеш-сумма) архива

MD5: f38843832d6b59458d16219d6bb0d8d5
[свернуть]
My opinion of release: 10/10
__________________
TAIFUN.Wings of Soul


Последний раз редактировалось sergych, 14.07.2018 в 05:21. Причина: pзамена потрекового рипа образом
Вверх
Пользователь сказал cпасибо:
johnsilver (15.07.2018)
  #2
Старый 14.07.2018, 05:23
sergych
Координатор
Досье
 
Аватар для sergych
По умолчанию Re: Oscar Peterson - The Composer

заменил потрековый рип образом
__________________
TAIFUN.Wings of Soul

Вверх
Пользователь сказал cпасибо:
johnsilver (15.07.2018)
Похожие темы
Тема Автор Раздел Ответов Последнее сообщение
Альбом Ben Webster & Oscar Peterson - Ben Webster Meets Oscar Peterson sergych Jazz и Blues 1 01.06.2018 17:07
Альбом Oscar Peterson - Oscar Peterson Plays Duke Ellington sergych Jazz и Blues 1 05.03.2015 20:44
Альбом Oscar Peterson - Oscar Peterson plays Porgy & Bess sergych Jazz и Blues 0 27.12.2008 06:28
Сборник Oscar Peterson - An Oscar Peterson Christmas sergych Jazz и Blues 0 27.12.2008 05:27
Альбом Count Basie & Oscar Peterson - The Timekeepers (Count Basie Meets Oscar Peterson) sergych Jazz и Blues 0 26.12.2008 04:10


Метки
2001 , jazz , oscar peterson , swing , the composer

Опции темы

Ваши права в разделе
Вы не можете создавать новые темы
Вы не можете отвечать в темах
Вы не можете прикреплять вложения
Вы не можете редактировать свои сообщения

Быстрый переход



Текущее время: 21:39. Часовой пояс GMT +3.
Powered by vBulletin® Version 3.8.10
Copyright ©2000 - 2018, vBulletin Solutions, Inc. Перевод: zCarot
© 2008 - 2018 Taifun With Song
Яндекс.Метрика