TAIFUN With Song
Навигация
Вернуться   TAIFUN With Song > Music (обменник) > Rock > Psychedelic Rock
Расширенный поиск
Psychedelic Rock Психоделический рок — сложная, экспрессивная музыка, сильно воздействующая на слушателя. Для этого используется широкий арсенал средств музыкальной выразительности и специальные эффекты при исполнении музыки. Характерной чертой психоделического рока стали продолжительные сольные партии ведущих инструментов и свой гармонический фон - переплетение мажорных и минорных гармоний, альтерации на 3-й, 5-й, 7-й ступенях и задержания на них, а также частая опора мелодии на неустойчивые звуки.

А знаете ли Вы, что...
Почему песня «Nothing Else Matters» начинается перебором на открытых струнах?
«В начале песни «Nothing Else Matters» группы Metallica слышен перебор на открытых первой, второй, третьей и шестой струнах. Такое композиционное решение появилось благодаря тому, что её автор Джеймс Хэтфилд, когда начинал сочинять песню, одной рукой держал телефонную трубку и разговаривал со своей девушкой.»
 
Опции темы

  #1
Старый 20.11.2012, 17:58
TAIFUN
Admin
Досье
 
Аватар для TAIFUN
По умолчанию Pink Floyd - More


1969 - Pink Floyd - More




Исполнитель/Artist: Pink Floyd
Альбом/Album: More
Год/Year: 1969
Жанр/Genre: Psychedelic Rock
Страна/Country: Germany
Рекорд-лейбл/Record label: EMI Records LTD
Формат/Format: Free Lossless Audio Codec (*.flac); ALAC (*.m4a)[отдельный архив]
Качество/Quality: Lossless; ALAC
Тип рипа/RIP Type: image+.cue


Продолжительность/Length: 00:44:27
Источник/Source: Из интернета
Размер/Size: 295 MB (FLAC); 230 MB (ALAC)

Сканы в комплекте (FLAC архив)
Тексты песен и обложка включены в теги треков (ALAC архив содержит тексты, список участников записи, описание альбома и песен)

Треклист

сторона А

«Cirrus Minor» (Перистые облака) (Уотерс) — 5:18
«The Nile Song» (Песня о Ниле) (Уотерс) — 3:26
«Crying Song» (Песня-плач) (Уотерс) — 3:33
«Up the Khyber» (Вверх по Хайберу) (Мэйсон/Райт) — 2:12
«Green is the Colour» (Зелёный — это цвет) (Уотерс) — 2:58
«Cymbaline» (Цимбалина) (Уотерс) — 4:50
«Party Sequence» (Эпизод на вечеринке) (Уотерс/Райт/Гилмор/Мэйсон) — 1:07

сторона Б

«Main Theme» (Главная тема) (Уотерс/Райт/Гилмор/Мэйсон) — 5:28
«Ibiza Bar» (Бар на Ивисе) (Уотерс/Райт/Гилмор/Мэйсон) — 3:19
«More Blues» (Блюз из «Больше») (Уотерс/Райт/Гилмор/Мэйсон) — 2:12
«Quicksilver» (Ртуть) (Уотерс/Райт/Гилмор/Мэйсон) — 7:13
«A Spanish Piece» (Испанская пьеса) (Гилмор) — 1:05
«Dramatic Theme» (Драматическая тема) (Уотерс/Райт/Гилмор/Мэйсон) — 2:15

4, 7, 8, 10-13 — инструментальные композиции.
[свернуть]

Исполнители/Performers

Роджер Уотерс — бас-гитара, вокал
Дэвид Гилмор — гитара, вокал
Ричард Райт — клавишные
Ник Мейсон — ударные, перкуссия
[свернуть]

EAC лог

Exact Audio Copy V0.99 prebeta 5 from 4. May 2009

EAC extraction logfile from 29. September 2010, 22:36

Pink Floyd / More.EMI.W.Germany

Used drive : PLEXTOR CD-R PREMIUM2 Adapter: 0 ID: 1

Read mode : Secure
Utilize accurate stream : Yes
Defeat audio cache : Yes
Make use of C2 pointers : No

Read offset correction : 30
Overread into Lead-In and Lead-Out : No
Fill up missing offset samples with silence : Yes
Delete leading and trailing silent blocks : No
Null samples used in CRC calculations : Yes
Used interface : Installed external ASPI interface

Used output format : User Defined Encoder
Selected bitrate : 768 kBit/s
Quality : High
Add ID3 tag : Yes
Command line compressor : C:\Program Files\Exact Audio Copy\FLAC\FLAC.EXE
Additional command line options : -6 -V -T "ARTIST=%a" -T "TITLE=%t" -T "ALBUM=%g" -T "DATE=%y" -T "TRACKNUMBER=%n" -T "GENRE=%m" -T "COMMENT=%e" %s -o %d


TOC of the extracted CD

Track | Start | Length | Start sector | End sector
---------------------------------------------------------
1 | 0:00.33 | 5:15.12 | 33 | 23669
2 | 5:15.45 | 3:25.53 | 23670 | 39097
3 | 8:41.23 | 3:34.05 | 39098 | 55152
4 | 12:15.28 | 2:13.12 | 55153 | 65139
5 | 14:28.40 | 2:58.55 | 65140 | 78544
6 | 17:27.20 | 4:49.65 | 78545 | 100284
7 | 22:17.10 | 1:10.10 | 100285 | 105544
8 | 23:27.20 | 5:31.68 | 105545 | 130437
9 | 28:59.13 | 3:16.65 | 130438 | 145202
10 | 32:16.03 | 2:12.47 | 145203 | 155149
11 | 34:28.50 | 7:10.35 | 155150 | 187434
12 | 41:39.10 | 1:05.10 | 187435 | 192319
13 | 42:44.20 | 2:16.43 | 192320 | 202562


Range status and errors

Selected range

Filename H:\Temp\Pink Floyd\More.1969.CDP7 46386 2.EMI.W.Germany\Pink Floyd - More.EMI.W.Germany.wav

Peak level 100.0 %
Range quality 100.0 %
Test CRC E514FDF7
Copy CRC E514FDF7
Copy OK

No errors occurred


AccurateRip summary

Track 1 accurately ripped (confidence 33) [A7EDFED1]
Track 2 accurately ripped (confidence 34) [4ECF6E27]
Track 3 accurately ripped (confidence 33) [833CF0E5]
Track 4 accurately ripped (confidence 33) [F1D1BB55]
Track 5 accurately ripped (confidence 34) [E2D9EDE4]
Track 6 accurately ripped (confidence 35) [5D01D653]
Track 7 accurately ripped (confidence 34) [36F41C59]
Track 8 accurately ripped (confidence 34) [94795972]
Track 9 accurately ripped (confidence 34) [B9D9506F]
Track 10 accurately ripped (confidence 33) [B459C34D]
Track 11 accurately ripped (confidence 32) [8037CACD]
Track 12 accurately ripped (confidence 34) [EC56C189]
Track 13 accurately ripped (confidence 34) [78C6C839]

All tracks accurately ripped

End of status report
[свернуть]

Файл CUE

REM GENRE Soundtrack
REM DATE 1969
REM DISCID A90A8C0D
REM COMMENT "ExactAudioCopy v0.99pb5"
PERFORMER "Pink Floyd"
TITLE "More.EMI.W.Germany"
FILE "Pink Floyd - More.EMI.W.Germany.flac" WAVE
TRACK 01 AUDIO
TITLE "Cirrus Minor"
PERFORMER "Pink Floyd"
INDEX 00 00:00:00
INDEX 01 00:00:33
TRACK 02 AUDIO
TITLE "The Nile Song"
PERFORMER "Pink Floyd"
INDEX 00 05:12:65
INDEX 01 05:15:45
TRACK 03 AUDIO
TITLE "Crying Song"
PERFORMER "Pink Floyd"
INDEX 00 08:38:43
INDEX 01 08:41:23
TRACK 04 AUDIO
TITLE "Up the Khyber"
PERFORMER "Pink Floyd"
INDEX 00 12:12:45
INDEX 01 12:15:28
TRACK 05 AUDIO
TITLE "Green Is The Colour"
PERFORMER "Pink Floyd"
INDEX 00 14:25:63
INDEX 01 14:28:40
TRACK 06 AUDIO
TITLE "Cymbaline"
PERFORMER "Pink Floyd"
INDEX 00 17:24:13
INDEX 01 17:27:20
TRACK 07 AUDIO
TITLE "Party Sequence"
PERFORMER "Pink Floyd"
INDEX 00 22:14:03
INDEX 01 22:17:10
TRACK 08 AUDIO
TITLE "Main Theme"
PERFORMER "Pink Floyd"
INDEX 00 23:24:35
INDEX 01 23:27:20
TRACK 09 AUDIO
TITLE "Ibiza Bar"
PERFORMER "Pink Floyd"
INDEX 00 28:56:05
INDEX 01 28:59:13
TRACK 10 AUDIO
TITLE "More Blues"
PERFORMER "Pink Floyd"
INDEX 00 32:12:73
INDEX 01 32:16:03
TRACK 11 AUDIO
TITLE "Quicksilver"
PERFORMER "Pink Floyd"
INDEX 00 34:28:48
INDEX 01 34:28:50
TRACK 12 AUDIO
TITLE "A Spanish Piece"
PERFORMER "Pink Floyd"
INDEX 00 41:35:55
INDEX 01 41:39:10
TRACK 13 AUDIO
TITLE "Dramatic Theme"
PERFORMER "Pink Floyd"
INDEX 00 42:41:43
INDEX 01 42:44:20
[свернуть]

Скачать Pink Floyd - More




pass: taifun.ws
[свернуть]
My opinion of release: 9/10
__________________
I love the music
FAQ по форуму
Правила форума
Жизнь человека - это не самое главное в его жизни...


Последний раз редактировалось TAIFUN, 11.11.2014 в 01:09.
Вверх
Пользователь сказал cпасибо:
sergych (25.11.2012)
Похожие темы
Тема Автор Раздел Ответов Последнее сообщение
Альбом Pink Floyd - Wish You Were Here sergych Psychedelic Rock 2 08.04.2016 23:29
VA Pink Floyd Tribute Band - A Chill Out Tribute To Pink Floyd sergych Chill Out 0 06.12.2008 17:23
Live Pink Floyd - KQED "An Hour With Pink Floyd" sergych Psychedelic Rock 0 05.10.2008 09:46


Метки
pink floyd , psychedelic , rock , рок

Опции темы

Ваши права в разделе
Вы не можете создавать новые темы
Вы не можете отвечать в темах
Вы не можете прикреплять вложения
Вы не можете редактировать свои сообщения

Быстрый переход



Текущее время: 18:40. Часовой пояс GMT +3.
Powered by vBulletin® Version 3.8.10
Copyright ©2000 - 2018, vBulletin Solutions, Inc. Перевод: zCarot
© 2008 - 2018 Taifun With Song
Яндекс.Метрика