TAIFUN With Song
Навигация
Вернуться   TAIFUN With Song > Music (обменник) > Chill Out > New age
Расширенный поиск
New age New Age - в большинстве случаев музыка не импровизационная, а скорее выверенная заранее, поскольку она призвана создавать некие состояния души, позволяющие погружаться в собственное подсознание. Как это ни парадоксально, но некая часть этой спокойной и благородной музыки нашла свое прикладное применение в ряде сфер практической жизни. Ее проигрывают в аэропортах, в лифтах громадных офисных зданий, используют в медицине, везде, где необходимо создание душевного равновесия. New Age нельзя считать музыкой упрощенной, хотя часто встречаются образцы, где нет сложных гармоний или изощренных импровизаций. Ее сложность в глубине переживаний, доступной отнюдь не каждому. Нередко прослушивание такой музыки помогает человеку освободиться от стрессов каждодневной жизни большого города, очиститься, расслабиться и сберечь свою психику от срыва.

А знаете ли Вы, что...
Кто умеет определять музыку на пластинках без её прослушивания?
«Американский врач Артур Линтген обладает уникальной задокументированной способностью — он умеет определять классическое оркестровое музыкальное произведение на виниловой пластинке без её прослушивания. Сначала он по контурам и впадинам дорожки распознаёт места, где музыка тише или громче, а также длительность каждой части произведения, а затем сопоставляет результат с обширной базой знаний европейской классической музыки из своей головы. Способности Линтгена не безграничны — по его словам, он плохо определяет музыку добетховенской эпохи, так как она слишком однородна по своей структуре.»
 
Опции темы

  #1
Старый 08.11.2014, 17:02
sergych
Координатор
Досье
 
Аватар для sergych
Релиз Enya - The Memory of Trees


1995 - Enya - The Memory of Trees




Исполнитель/Artist: Enya
Альбом/Album: The Memory of Trees
Год/Year: 1995
Жанр/Genre: New-age, Celtic, pop
Страна/Country: Германия
Рекорд-лейбл/Record label: Warner Music
Номер в каталоге/Catalogue #: 0630-12879-2
Формат/Format: Free Lossless Audio Codec (*.flac)
Качество/Quality: Lossless
Тип рипа/RIP Type: image+.cue
Продолжительность/Length: 00:43:51
Источник/Source: Собственный рип
Размер/Size: 272.1 MB

Сканы в комплекте

Треклист

01. The Memory of Trees [0:04:19.70]
02. Anywhere Is [0:03:59.35]
03. Pax Deorum [0:04:59.50]
04. Athair ar Neamh [0:03:42.07]
05. From Where I Am [0:02:22.65]
06. China Roses [0:04:49.60]
07. Hope Has a Place [0:04:48.48]
08. Tea-House Moon [0:02:43.32]
09. Once You Had Gold [0:03:18.25]
10. La Sonadora [0:03:38.18]
11. On My Way Home [0:05:09.10]
[свернуть]

youtube.com

[свернуть]

EAC лог

Exact Audio Copy V1.0 beta 3 from 29. August 2011

EAC extraction logfile from 2. November 2014, 17:45

Enya / The Memory of Trees

Used drive : ATAPI iHAS124 D Adapter: 0 ID: 2

Read mode : Secure
Utilize accurate stream : Yes
Defeat audio cache : Yes
Make use of C2 pointers : No

Read offset correction : 6
Overread into Lead-In and Lead-Out : No
Fill up missing offset samples with silence : Yes
Delete leading and trailing silent blocks : No
Null samples used in CRC calculations : Yes
Used interface : Installed external ASPI interface

Used output format : User Defined Encoder
Selected bitrate : 1024 kBit/s
Quality : High
Add ID3 tag : No
Command line compressor : C:\Program Files (x86)\Exact Audio Copy\Flac\flac.exe
Additional command line options : -6 -V -T "ARTIST=%artist%" -T "TITLE=%title%" -T "ALBUM=%albumtitle%" -T "DATE=%year%" -T "TRACKNUMBER=%tracknr%" -T "GENRE=%genre%" -T "COMMENT=%comment%" -T "BAND=%albuminterpret%" -T "COMPOSER=%composer%" %haslyrics%--tag-from-file=LYRICS="%lyricsfile%"%haslyrics% -T "DISCNUMBER=%cdnumber%" -T "TOTALDISCS=%totalcds%" -T "TOTALTRACKS=%numtracks%" %hascover%--picture="%coverfile%"%hascover% %source% -o %dest%


TOC of the extracted CD

Track | Start | Length | Start sector | End sector
---------------------------------------------------------
1 | 0:00.00 | 4:19.70 | 0 | 19494
2 | 4:19.70 | 3:59.35 | 19495 | 37454
3 | 8:19.30 | 4:59.50 | 37455 | 59929
4 | 13:19.05 | 3:42.07 | 59930 | 76586
5 | 17:01.12 | 2:22.65 | 76587 | 87301
6 | 19:24.02 | 4:49.60 | 87302 | 109036
7 | 24:13.62 | 4:48.48 | 109037 | 130684
8 | 29:02.35 | 2:43.32 | 130685 | 142941
9 | 31:45.67 | 3:18.25 | 142942 | 157816
10 | 35:04.17 | 3:38.18 | 157817 | 174184
11 | 38:42.35 | 5:09.10 | 174185 | 197369


Range status and errors

Selected range

Filename C:\mm\Enya\1995 - The Memory Of Trees [0630-12879-2]\Enya - The Memory of Trees.wav

Peak level 97.7 %
Extraction speed 8.3 X
Range quality 100.0 %
Test CRC F3D0D571
Copy CRC F3D0D571
Copy OK

No errors occurred


AccurateRip summary

Track 1 accurately ripped (confidence 200) [4C7DE3C9] (AR v2)
Track 2 accurately ripped (confidence 200) [742B187A] (AR v2)
Track 3 accurately ripped (confidence 200) [6EE17368] (AR v2)
Track 4 accurately ripped (confidence 200) [9A7DB022] (AR v2)
Track 5 accurately ripped (confidence 200) [3E787D27] (AR v2)
Track 6 accurately ripped (confidence 200) [8C879AF2] (AR v2)
Track 7 accurately ripped (confidence 200) [6E22B054] (AR v2)
Track 8 accurately ripped (confidence 200) [30D45732] (AR v2)
Track 9 accurately ripped (confidence 200) [922B0197] (AR v2)
Track 10 accurately ripped (confidence 200) [7A9761F1] (AR v2)
Track 11 accurately ripped (confidence 200) [EA3C7D01] (AR v2)

All tracks accurately ripped

End of status report
[свернуть]

Файл CUE

REM GENRE "New Age"
REM DATE 1995
REM DISCID 720A470B
REM COMMENT "ExactAudioCopy v1.0b3"
PERFORMER "Enya"
TITLE "The Memory of Trees"
FILE "Enya - The Memory of Trees.flac" WAVE
TRACK 01 AUDIO
TITLE "The Memory of Trees"
PERFORMER "Enya"
INDEX 01 00:00:00
TRACK 02 AUDIO
TITLE "Anywhere Is"
PERFORMER "Enya"
INDEX 00 04:17:70
INDEX 01 04:19:70
TRACK 03 AUDIO
TITLE "Pax Deorum"
PERFORMER "Enya"
INDEX 00 08:17:30
INDEX 01 08:19:30
TRACK 04 AUDIO
TITLE "Athair ar Neamh"
PERFORMER "Enya"
INDEX 00 13:17:05
INDEX 01 13:19:05
TRACK 05 AUDIO
TITLE "From Where I Am"
PERFORMER "Enya"
INDEX 00 16:59:12
INDEX 01 17:01:12
TRACK 06 AUDIO
TITLE "China Roses"
PERFORMER "Enya"
INDEX 00 19:22:02
INDEX 01 19:24:02
TRACK 07 AUDIO
TITLE "Hope Has a Place"
PERFORMER "Enya"
INDEX 00 24:11:62
INDEX 01 24:13:62
TRACK 08 AUDIO
TITLE "Tea-House Moon"
PERFORMER "Enya"
INDEX 00 28:58:35
INDEX 01 29:02:35
TRACK 09 AUDIO
TITLE "Once You Had Gold"
PERFORMER "Enya"
INDEX 00 31:43:67
INDEX 01 31:45:67
TRACK 10 AUDIO
TITLE "La Sonadora"
PERFORMER "Enya"
INDEX 00 35:02:17
INDEX 01 35:04:17
TRACK 11 AUDIO
TITLE "On My Way Home"
PERFORMER "Enya"
INDEX 00 38:39:35
INDEX 01 38:42:35
[свернуть]

Лог проверки качества

AUDIOCHECKER v2.0 beta (build 457) - by Dester -
~~~~~~~~~~~~~~~~~~~~~~~~~~~~~~~~~~
-=== НЕ РЕДАКТИРУЙТЕ ЭТОТ ФАЙЛ! ===-

Путь: ...\1995 - The Memory Of Trees [0630-12879-2]

1 -=- Enya - The Memory of Trees.flac -=- CDDA (100%)

54477012
[свернуть]

Спектр частот

[свернуть]

Скачать Enya - The Memory of Trees



password: sergych
[свернуть]
My opinion of release: 10/10
__________________
TAIFUN.Wings of Soul

Вверх
Похожие темы
Тема Автор Раздел Ответов Последнее сообщение
Сборник Enya - Paint the Sky With Stars. The Best of Enya sergych New age 0 29.04.2014 21:10
Релиз Monocular - Pine Trees PUPOKIN Indie Rock 0 23.06.2012 09:37
Релиз Taken By Trees - East Of Eden PUPOKIN Indie Rock 0 05.09.2009 09:44
Релиз Lisa Papineau - Red Trees PUPOKIN New age 0 18.07.2009 17:13
Альбом Enya - The Best Of Enya On Piano PUPOKIN New age 0 03.06.2009 10:37


Метки
1995 , celtic , enya , new-age , pop , the memory of trees

Опции темы

Ваши права в разделе
Вы не можете создавать новые темы
Вы не можете отвечать в темах
Вы не можете прикреплять вложения
Вы не можете редактировать свои сообщения

Быстрый переход



Текущее время: 05:12. Часовой пояс GMT +3.
Powered by vBulletin® Version 3.8.10
Copyright ©2000 - 2018, vBulletin Solutions, Inc. Перевод: zCarot
© 2008 - 2018 Taifun With Song
Яндекс.Метрика