TAIFUN With Song
Навигация
Вернуться   TAIFUN With Song > Music (обменник) > Chill Out > New age
Расширенный поиск
New age New Age - в большинстве случаев музыка не импровизационная, а скорее выверенная заранее, поскольку она призвана создавать некие состояния души, позволяющие погружаться в собственное подсознание. Как это ни парадоксально, но некая часть этой спокойной и благородной музыки нашла свое прикладное применение в ряде сфер практической жизни. Ее проигрывают в аэропортах, в лифтах громадных офисных зданий, используют в медицине, везде, где необходимо создание душевного равновесия. New Age нельзя считать музыкой упрощенной, хотя часто встречаются образцы, где нет сложных гармоний или изощренных импровизаций. Ее сложность в глубине переживаний, доступной отнюдь не каждому. Нередко прослушивание такой музыки помогает человеку освободиться от стрессов каждодневной жизни большого города, очиститься, расслабиться и сберечь свою психику от срыва.

А знаете ли Вы, что...
Как выбрали длительность звучания компакт-диска?
«Вместимость компакт-диска была выбрана японскими разработчиками так, чтобы на нём полностью поместилась девятая симфония Бетховена — любимое произведение вице-президента Сони. Хотя итоговая длительность диска в 74 минуты, возникшая в результате разных технических согласований, была всё же на полминуты меньше длительности симфонии.»
 
Опции темы

  #1
Старый 01.05.2014, 13:40
sergych
Координатор
Досье
 
Аватар для sergych
Релиз Yanni - Out of Silence


1987 - Yanni - Out of Silence




Исполнитель/Artist: Yanni
Альбом/Album: Out of Silence
Год/Year: 1987
Жанр/Genre: Contemporary instrumental, Easy listening, Soft adult contemporary
Страна/Country: Соединённые Штаты
Рекорд-лейбл/Record label: Private Music
Номер в каталоге/Catalogue #: 2024-2-P
Формат/Format: Free Lossless Audio Codec (*.flac)
Качество/Quality: Lossless
Тип рипа/RIP Type: image+.cue
Продолжительность/Length: 00:46:30
Источник/Source: Собственный рип
Размер/Size: 272.1 MB

Сканы в комплекте

Треклист

01. Sand Dance [0:05:15.10]
02. After the Sunrise [0:04:38.48]
03. Standing in Motion [0:05:22.50]
04. The Mermaid [0:03:47.20]
05. Within Attraction [0:04:10.17]
06. Street Level [0:04:18.58]
07. Secret Vows [0:03:59.30]
08. Point of Origin [0:05:57.27]
09. Acroyali [0:05:07.35]
10. Paths on Water [0:03:53.50]
[свернуть]

youtube.com

[свернуть]

Исполнители/Performers

Yanni, Joyce Imbesi, John Tesh - keyboards
Charlie Adams - drums
[свернуть]

EAC лог

Exact Audio Copy V1.0 beta 3 from 29. August 2011

EAC extraction logfile from 1. May 2014, 1:44

Yanni / Out of Silence

Used drive : ATAPI iHAS124 D Adapter: 0 ID: 2

Read mode : Secure
Utilize accurate stream : Yes
Defeat audio cache : Yes
Make use of C2 pointers : No

Read offset correction : 6
Overread into Lead-In and Lead-Out : No
Fill up missing offset samples with silence : Yes
Delete leading and trailing silent blocks : No
Null samples used in CRC calculations : Yes
Used interface : Installed external ASPI interface

Used output format : User Defined Encoder
Selected bitrate : 1024 kBit/s
Quality : High
Add ID3 tag : No
Command line compressor : C:\Program Files (x86)\Exact Audio Copy\Flac\flac.exe
Additional command line options : -6 -V -T "ARTIST=%artist%" -T "TITLE=%title%" -T "ALBUM=%albumtitle%" -T "DATE=%year%" -T "TRACKNUMBER=%tracknr%" -T "GENRE=%genre%" -T "COMMENT=%comment%" -T "BAND=%albuminterpret%" -T "COMPOSER=%composer%" %haslyrics%--tag-from-file=LYRICS="%lyricsfile%"%haslyrics% -T "DISCNUMBER=%cdnumber%" -T "TOTALDISCS=%totalcds%" -T "TOTALTRACKS=%numtracks%" %hascover%--picture="%coverfile%"%hascover% %source% -o %dest%


TOC of the extracted CD

Track | Start | Length | Start sector | End sector
---------------------------------------------------------
1 | 0:00.00 | 5:15.10 | 0 | 23634
2 | 5:15.10 | 4:38.48 | 23635 | 44532
3 | 9:53.58 | 5:22.50 | 44533 | 68732
4 | 15:16.33 | 3:47.20 | 68733 | 85777
5 | 19:03.53 | 4:10.17 | 85778 | 104544
6 | 23:13.70 | 4:18.58 | 104545 | 123952
7 | 27:32.53 | 3:59.30 | 123953 | 141907
8 | 31:32.08 | 5:57.27 | 141908 | 168709
9 | 37:29.35 | 5:07.35 | 168710 | 191769
10 | 42:36.70 | 3:53.50 | 191770 | 209294


Range status and errors

Selected range

Filename C:\mm\Yanni\1987 - Out Of Silence [2024-2-P]\Yanni - Out of Silence.wav

Peak level 97.7 %
Extraction speed 8.4 X
Range quality 100.0 %
Test CRC 50D955F0
Copy CRC E2F4D88E
Copy OK

No errors occurred


AccurateRip summary

Track 1 accurately ripped (confidence 10) [038D2AC9] (AR v2)
Track 2 accurately ripped (confidence 9) [3F432963] (AR v2)
Track 3 accurately ripped (confidence 9) [6783AD21] (AR v2)
Track 4 accurately ripped (confidence 10) [590FEED1] (AR v2)
Track 5 accurately ripped (confidence 10) [079CFC76] (AR v2)
Track 6 accurately ripped (confidence 10) [450A8807] (AR v2)
Track 7 accurately ripped (confidence 10) [44439FFE] (AR v2)
Track 8 cannot be verified as accurate (confidence 24) [3F74DAEB], AccurateRip returned [2D4848C9] (AR v2)
Track 9 accurately ripped (confidence 10) [5FBE10AC] (AR v2)
Track 10 accurately ripped (confidence 10) [562956A9] (AR v2)

9 трек(и) скопированы точно
1 трек(и) не удалось проверить на точность

Some tracks could not be verified as accurate

End of status report
[свернуть]

Файл CUE

REM GENRE "New Age"
REM DATE 1987
REM DISCID 930AE60A
REM COMMENT "ExactAudioCopy v1.0b3"
PERFORMER "Yanni"
TITLE "Out of Silence"
FILE "Yanni - Out of Silence.flac" WAVE
TRACK 01 AUDIO
TITLE "Sand Dance"
PERFORMER "Yanni"
INDEX 01 00:00:00
TRACK 02 AUDIO
TITLE "After the Sunrise"
PERFORMER "Yanni"
INDEX 00 05:14:18
INDEX 01 05:15:10
TRACK 03 AUDIO
TITLE "Standing in Motion"
PERFORMER "Yanni"
INDEX 00 09:53:00
INDEX 01 09:53:58
TRACK 04 AUDIO
TITLE "The Mermaid"
PERFORMER "Yanni"
INDEX 00 15:15:25
INDEX 01 15:16:33
TRACK 05 AUDIO
TITLE "Within Attraction"
PERFORMER "Yanni"
INDEX 00 19:03:35
INDEX 01 19:03:53
TRACK 06 AUDIO
TITLE "Street Level"
PERFORMER "Yanni"
INDEX 00 23:13:33
INDEX 01 23:13:70
TRACK 07 AUDIO
TITLE "Secret Vows"
PERFORMER "Yanni"
INDEX 01 27:32:53
TRACK 08 AUDIO
TITLE "Point of Origin"
PERFORMER "Yanni"
INDEX 00 31:31:23
INDEX 01 31:32:08
TRACK 09 AUDIO
TITLE "Acroyali"
PERFORMER "Yanni"
INDEX 00 37:28:15
INDEX 01 37:29:35
TRACK 10 AUDIO
TITLE "Paths on Water"
PERFORMER "Yanni"
INDEX 00 42:35:35
INDEX 01 42:36:70
[свернуть]

Лог проверки качества

AUDIOCHECKER v2.0 beta (build 457) - by Dester -
~~~~~~~~~~~~~~~~~~~~~~~~~~~~~~~~~~
-=== НЕ РЕДАКТИРУЙТЕ ЭТОТ ФАЙЛ! ===-

Путь: ...\1987 - Out Of Silence [2024-2-P]

1 -=- Yanni - Out of Silence.flac -=- MPEG (95%)

79822276
[свернуть]

Спектр частот

[свернуть]

Скачать Yanni - Out of Silence



password: sergych
[свернуть]
My opinion of release: 10/10
__________________
TAIFUN.Wings of Soul

Вверх
Похожие темы
Тема Автор Раздел Ответов Последнее сообщение
Альбом Yanni - If I Could Tell You sergych New age 0 10.02.2014 18:55
Альбом Yanni - In My Time sergych New age 0 07.02.2014 23:58
Сборник Yanni - Devotion: The Best of Yanni sergych New age 0 25.01.2014 18:04
Альбом Yanni - My Passion For Mexico aheron New age 0 06.06.2013 21:54
Альбом Yanni - Ethnicity aheron New age 0 22.05.2013 20:09


Метки
1987 , contemporary instrumental , easy listening , out of silence , soft adult contemporary , yanni

Опции темы

Ваши права в разделе
Вы не можете создавать новые темы
Вы не можете отвечать в темах
Вы не можете прикреплять вложения
Вы не можете редактировать свои сообщения

Быстрый переход



Текущее время: 23:09. Часовой пояс GMT +3.
Powered by vBulletin® Version 3.8.10
Copyright ©2000 - 2018, vBulletin Solutions, Inc. Перевод: zCarot
© 2008 - 2018 Taifun With Song
Яндекс.Метрика