TAIFUN With Song
Навигация
New age New Age - в большинстве случаев музыка не импровизационная, а скорее выверенная заранее, поскольку она призвана создавать некие состояния души, позволяющие погружаться в собственное подсознание. Как это ни парадоксально, но некая часть этой спокойной и благородной музыки нашла свое прикладное применение в ряде сфер практической жизни. Ее проигрывают в аэропортах, в лифтах громадных офисных зданий, используют в медицине, везде, где необходимо создание душевного равновесия. New Age нельзя считать музыкой упрощенной, хотя часто встречаются образцы, где нет сложных гармоний или изощренных импровизаций. Ее сложность в глубине переживаний, доступной отнюдь не каждому. Нередко прослушивание такой музыки помогает человеку освободиться от стрессов каждодневной жизни большого города, очиститься, расслабиться и сберечь свою психику от срыва.

А знаете ли Вы, что...
Чем прославился Боб Марли до того, как стать музыкантом?
«Знаменитый ямайский регги-музыкант Боб Марли в детстве был известен в своей деревне как талантливый предсказатель по линиям на ладонях.»
 
Опции темы

  #1
Старый 17.09.2013, 22:03
sergych
Координатор
Досье
 
Аватар для sergych
Релиз Enya - Exile


1991 - Enya - Exile




Исполнитель/Artist: Enya
Альбом/Album: Exile
Год/Year: 1991
Жанр/Genre: new age, ambient
Страна/Country: Япония
Рекорд-лейбл/Record label: WEA Music K.K.
Номер в каталоге/Catalogue #: WMC5-387
Формат/Format: Free Lossless Audio Codec (*.flac)
Качество/Quality: Lossless
Тип рипа/RIP Type: tracks+.cue
Продолжительность/Length: 00:13:59
Источник/Source: Из интернета
Размер/Size: 67.7 MB

Сканы в комплекте

Треклист

01 - Exile
02 - On Your Shore
03 - Watermark
04 - River
[свернуть]

youtube.com

[свернуть]

EAC лог

Exact Audio Copy V0.99 prebeta 5 from 4. May 2009

EAC extraction logfile from 23. April 2010, 14:40

Enya / Exile

Used drive : TSSTcorpCD/DVDW SH-S182F Adapter: 0 ID: 0

Read mode : Secure
Utilize accurate stream : Yes
Defeat audio cache : Yes
Make use of C2 pointers : No

Read offset correction : 6
Overread into Lead-In and Lead-Out : No
Fill up missing offset samples with silence : Yes
Delete leading and trailing silent blocks : No
Null samples used in CRC calculations : Yes
Used interface : Native Win32 interface for Win NT & 2000
Gap handling : Appended to previous track

Used output format : User Defined Encoder
Selected bitrate : 1024 kBit/s
Quality : High
Add ID3 tag : No
Command line compressor : C:\Archivos de programa\Exact Audio Copy\FLAC\FLAC.EXE
Additional command line options : -V -8 -T "artist=%a" -T "title=%t" -T "album=%g" -T "date=%y" -T "tracknumber=%n" -T "genre=%m" %s


TOC of the extracted CD

Track | Start | Length | Start sector | End sector
---------------------------------------------------------
1 | 0:00.00 | 4:22.70 | 0 | 19719
2 | 4:22.70 | 3:59.40 | 19720 | 37684
3 | 8:22.35 | 2:26.20 | 37685 | 48654
4 | 10:48.55 | 3:11.60 | 48655 | 63039


Track 1

Filename V:\Enya - Exile (1991) [FLAC]\01 Exile.wav

Pre-gap length 0:00:02.00

Peak level 100.0 %
Track quality 100.0 %
Test CRC 24E2F01B
Copy CRC 24E2F01B
Cannot be verified as accurate (confidence 3) [E7E12A8B], AccurateRip returned [FFDA7A70]
Copy OK

Track 2

Filename V:\Enya - Exile (1991) [FLAC]\02 On Your Shore.wav

Peak level 74.4 %
Track quality 100.0 %
Test CRC D7865529
Copy CRC D7865529
Cannot be verified as accurate (confidence 3) [3A9BD57C], AccurateRip returned [2DA81A58]
Copy OK

Track 3

Filename V:\Enya - Exile (1991) [FLAC]\03 Watermark.wav

Peak level 97.6 %
Track quality 100.0 %
Test CRC B4F83BFD
Copy CRC B4F83BFD
Cannot be verified as accurate (confidence 3) [675AC9F9], AccurateRip returned [5C153373]
Copy OK

Track 4

Filename V:\Enya - Exile (1991) [FLAC]\04 River.wav

Pre-gap length 0:00:00.80

Peak level 82.7 %
Track quality 100.0 %
Test CRC 373E19AE
Copy CRC 373E19AE
Cannot be verified as accurate (confidence 2) [D09EBBCD], AccurateRip returned [7E63C6C9]
Copy OK


No tracks could be verified as accurate
You may have a different pressing from the one(s) in the database

No errors occurred

End of status report
[свернуть]

Файл CUE

REM GENRE "New Age"
REM DATE 1991
REM DISCID 22034804
REM COMMENT "ExactAudioCopy v0.99pb5"
PERFORMER "Enya"
TITLE "Exile"
FILE "01 - Exile.wav" WAVE
TRACK 01 AUDIO
TITLE "Exile"
PERFORMER "Enya"
INDEX 01 00:00:00
FILE "02 - On Your Shore.wav" WAVE
TRACK 02 AUDIO
TITLE "On Your Shore"
PERFORMER "Enya"
INDEX 01 00:00:00
FILE "03 - Watermark.wav" WAVE
TRACK 03 AUDIO
TITLE "Watermark"
PERFORMER "Enya"
INDEX 01 00:00:00
TRACK 04 AUDIO
TITLE "River"
PERFORMER "Enya"
INDEX 00 02:25:35
FILE "04 - River.wav" WAVE
INDEX 01 00:00:00
[свернуть]

Лог проверки качества

AUDIOCHECKER v2.0 beta (build 457) - by Dester -
~~~~~~~~~~~~~~~~~~~~~~~~~~~~~~~~~~
-=== НЕ РЕДАКТИРУЙТЕ ЭТОТ ФАЙЛ! ===-

Путь: ...\1991 - Exile

1 -=- 01 Exile.flac -=- CDDA (100%)
2 -=- 02 On Your Shore.flac -=- CDDA (100%)
3 -=- 03 Watermark.flac -=- CDDA (100%)
4 -=- 04 River.flac -=- CDDA (100%)

Сводка 100,00% CDDA

132795348
[свернуть]

Скачать Enya - Exile



password: sergych
[свернуть]
My opinion of release: 10/10

Release info RInfo

FEATURING MUSIC FROM THE MOTION PICTURE 'L.A. STORY' & 'GREEN CARD.'
__________________
TAIFUN.Wings of Soul

Вверх
Похожие темы
Тема Автор Раздел Ответов Последнее сообщение
Релиз Sun Gods In Exile - Thanks for the Silver PUPOKIN Hard Rock 0 29.05.2012 10:17
Релиз Exile Parade - Hit The Zoo PUPOKIN Alternative Rock 0 16.03.2012 10:40
Альбом Enya - The Best Of Enya On Piano PUPOKIN New age 0 03.06.2009 10:37
Релиз Exile - Radio PUPOKIN Зарубежный 0 16.01.2009 10:19


Метки
1991 , ambient , enya , exile , new age

Опции темы

Ваши права в разделе
Вы не можете создавать новые темы
Вы не можете отвечать в темах
Вы не можете прикреплять вложения
Вы не можете редактировать свои сообщения

Быстрый переход



Текущее время: 21:20. Часовой пояс GMT +3.
Powered by vBulletin® Version 3.8.10
Copyright ©2000 - 2018, vBulletin Solutions, Inc. Перевод: zCarot
© 2008 - 2018 Taifun With Song
Яндекс.Метрика