TAIFUN With Song
Навигация
Вернуться   TAIFUN With Song > Music (обменник) > Другие направления музыки > Jazz и Blues
Расширенный поиск
Jazz и Blues Гибкая ритмика, импровизационное начало, гармонии и мелодии - все это Jazz. Blues - жизнеутверждающая музыка, рожденная из душевной боли

А знаете ли Вы, что...
Почему обложку музыкального сборника
«В 2005 году Sony BMG выпустила музыкальный сборник ‘Electric 80s’. В оформлении обложки диска был использован большой штрих-код. Некоторые супермаркеты потерпели убытки после того, как их продавцы считывали сканерами именно этот штрих-код вместо обычного, располагающегося на обратной стороне диска. Сканеры распознавали по коду другой товар, который стоил дешевле. Во второй партии дисков обложка была изменена.»
 
Опции темы

  #1
Старый 29.05.2018, 16:17
sergych
Координатор
Досье
 
Аватар для sergych
Релиз Oscar Peterson - Days Of Wine And Roses / All of Me. Oscar Peterson Best


2013 - Oscar Peterson - Days Of Wine And Roses / All of Me. Oscar Peterson Best




Исполнитель/Artist: Oscar Peterson
Альбом/Album: Days Of Wine And Roses / All of Me. Oscar Peterson Best
Год/Year: 2013
Жанр/Genre: instrumental, jazz
Страна/Country: Япония
Рекорд-лейбл/Record label: Universal Music
Номер в каталоге/Catalogue #: TYCJ-60034
Формат/Format: Free Lossless Audio Codec (*.flac)
Качество/Quality: Lossless
Тип рипа/RIP Type: image+.cue
Продолжительность/Length: 01:02:05
Источник/Source: Собственный рип
Размер/Size: 374.1 MB

Сканы в комплекте

Треклист

01. Take The A Train [0:03:06.20]
02. All Of Me [0:03:25.03]
03. Mack The Knife [0:05:21.45]
04. Caravan [0:02:51.11]
05. Singin' In The Rain [0:05:57.38]
06. The Days Of Wine And Roses [0:02:43.60]
07. Work Song [0:07:31.70]
08. Waltz For Debbie [0:05:55.41]
09. Jumpin' At The Woodside [0:05:41.64]
10. Close Your Eyes [0:05:45.38]
11. Night Train [0:04:52.68]
12. On Green Dolphin Street [0:08:52.16]
[свернуть]

youtube.com

[свернуть]

EAC лог

Exact Audio Copy V1.3 from 2. September 2016

EAC extraction logfile from 26. May 2018, 23:21

Oscar Peterson / Oscar Peterson Best

Used drive : ATAPI iHAS124 D Adapter: 0 ID: 2

Read mode : Secure
Utilize accurate stream : Yes
Defeat audio cache : Yes
Make use of C2 pointers : No

Read offset correction : 6
Overread into Lead-In and Lead-Out : No
Fill up missing offset samples with silence : Yes
Delete leading and trailing silent blocks : No
Null samples used in CRC calculations : Yes
Used interface : Installed external ASPI interface

Used output format : User Defined Encoder
Selected bitrate : 1024 kBit/s
Quality : High
Add ID3 tag : No
Command line compressor : C:\Program Files (x86)\Exact Audio Copy\Flac\flac.exe
Additional command line options : -6 -V -T "ARTIST=%artist%" -T "TITLE=%title%" -T "ALBUM=%albumtitle%" -T "DATE=%year%" -T "TRACKNUMBER=%tracknr%" -T "GENRE=%genre%" -T "COMMENT=%comment%" -T "BAND=%albuminterpret%" -T "ALBUMARTIST=%albuminterpret%" -T "COMPOSER=%composer%" %haslyrics%--tag-from-file=LYRICS="%lyricsfile%"%haslyrics% -T "DISCNUMBER=%cdnumber%" -T "TOTALDISCS=%totalcds%" -T "TOTALTRACKS=%numtracks%" %hascover%--picture="%coverfile%"%hascover% %source% -o %dest%


TOC of the extracted CD

Track | Start | Length | Start sector | End sector
---------------------------------------------------------
1 | 0:00.00 | 3:06.20 | 0 | 13969
2 | 3:06.20 | 3:25.03 | 13970 | 29347
3 | 6:31.23 | 5:21.45 | 29348 | 53467
4 | 11:52.68 | 2:51.11 | 53468 | 66303
5 | 14:44.04 | 5:57.38 | 66304 | 93116
6 | 20:41.42 | 2:43.60 | 93117 | 105401
7 | 23:25.27 | 7:31.70 | 105402 | 139296
8 | 30:57.22 | 5:55.41 | 139297 | 165962
9 | 36:52.63 | 5:41.64 | 165963 | 191601
10 | 42:34.52 | 5:45.38 | 191602 | 217514
11 | 48:20.15 | 4:52.68 | 217515 | 239482
12 | 53:13.08 | 8:52.16 | 239483 | 279398


Range status and errors

Selected range

Filename C:\mm\Oscar Peterson\2013 - Oscar Peterson Best [TYCJ-60034]\Oscar Peterson - Oscar Peterson Best.wav

Peak level 99.3 %
Extraction speed 1.8 X
Range quality 100.0 %
Test CRC 1E909629
Copy CRC 1E909629
Copy OK

No errors occurred

End of status report

---- CUETools DB Plugin V2.1.6

[CTDB TOCID: 1YWdBBeVVYQequ12Ny.UWRAc0Dw-] found
Submit result: 1YWdBBeVVYQequ12Ny.UWRAc0Dw- has been confirmed
Track | CTDB Status
1 | (4/4) Accurately ripped
2 | (4/4) Accurately ripped
3 | (4/4) Accurately ripped
4 | (4/4) Accurately ripped
5 | (4/4) Accurately ripped
6 | (4/4) Accurately ripped
7 | (4/4) Accurately ripped
8 | (4/4) Accurately ripped
9 | (4/4) Accurately ripped
10 | (3/4) Accurately ripped
11 | (4/4) Accurately ripped
12 | (4/4) Accurately ripped
[свернуть]

Файл CUE

REM GENRE Jazz
REM DATE 2013
REM DISCID AB0E8D0C
REM COMMENT "ExactAudioCopy v1.3"
PERFORMER "Oscar Peterson"
TITLE "Oscar Peterson Best"
REM COMPOSER ""
FILE "Oscar Peterson - Oscar Peterson Best.flac" WAVE
TRACK 01 AUDIO
TITLE "Take The A Train"
PERFORMER "Oscar Peterson"
REM COMPOSER ""
INDEX 01 00:00:00
TRACK 02 AUDIO
TITLE "All Of Me"
PERFORMER "Oscar Peterson"
REM COMPOSER ""
INDEX 00 03:03:72
INDEX 01 03:06:20
TRACK 03 AUDIO
TITLE "Mack The Knife"
PERFORMER "Oscar Peterson"
REM COMPOSER ""
INDEX 00 06:28:74
INDEX 01 06:31:23
TRACK 04 AUDIO
TITLE "Caravan"
PERFORMER "Oscar Peterson"
REM COMPOSER ""
INDEX 00 11:50:45
INDEX 01 11:52:68
TRACK 05 AUDIO
TITLE "Singin' In The Rain"
PERFORMER "Oscar Peterson"
REM COMPOSER ""
INDEX 00 14:41:56
INDEX 01 14:44:04
TRACK 06 AUDIO
TITLE "The Days Of Wine And Roses"
PERFORMER "Oscar Peterson"
REM COMPOSER ""
INDEX 00 20:39:19
INDEX 01 20:41:42
TRACK 07 AUDIO
TITLE "Work Song"
PERFORMER "Oscar Peterson"
REM COMPOSER ""
INDEX 00 23:23:04
INDEX 01 23:25:27
TRACK 08 AUDIO
TITLE "Waltz For Debbie"
PERFORMER "Oscar Peterson"
REM COMPOSER ""
INDEX 00 30:54:74
INDEX 01 30:57:22
TRACK 09 AUDIO
TITLE "Jumpin' At The Woodside"
PERFORMER "Oscar Peterson"
REM COMPOSER ""
INDEX 00 36:50:40
INDEX 01 36:52:63
TRACK 10 AUDIO
TITLE "Close Your Eyes"
PERFORMER "Oscar Peterson"
REM COMPOSER ""
INDEX 00 42:32:29
INDEX 01 42:34:52
TRACK 11 AUDIO
TITLE "Night Train"
PERFORMER "Oscar Peterson"
REM COMPOSER ""
INDEX 00 48:17:67
INDEX 01 48:20:15
TRACK 12 AUDIO
TITLE "On Green Dolphin Street"
PERFORMER "Oscar Peterson"
REM COMPOSER ""
INDEX 00 53:10:60
INDEX 01 53:13:08
[свернуть]

Лог проверки качества

AUDIOCHECKER v2.0 beta (build 457) - by Dester -
~~~~~~~~~~~~~~~~~~~~~~~~~~~~~~~~~~
-=== НЕ РЕДАКТИРУЙТЕ ЭТОТ ФАЙЛ! ===-

Путь: ...\2013 - Days Of Wine And Roses _ All of Me. Oscar Peterson Best [TYCJ-60034]

1 -=- Oscar Peterson - Oscar Peterson Best.flac -=- CDDA (85%)

16939572
[свернуть]

Спектр частот

[свернуть]

Скачать Oscar Peterson - Days Of Wine And Roses / All of Me. Oscar Peterson Best



password: sergych
[свернуть]

Контрольная сумма (хеш-сумма) архива

MD5: 5321b326c428419478c8b3f71940c854
[свернуть]
My opinion of release: 10/10

Release info RInfo

, похоже что за пределами страны не издавался (по-крайней мере я нигде такое издание не нашёл)
__________________
TAIFUN.Wings of Soul

Вверх
3 пользователя(ей) сказали cпасибо:
Показать список поблагодаривших
Похожие темы
Тема Автор Раздел Ответов Последнее сообщение
Сборник Oscar Peterson - The Dazzling Oscar Peterson sergych Jazz и Blues 0 28.06.2015 18:32
Сборник Oscar Peterson - Verve Jazz Masters 16. Oscar Peterson sergych Jazz и Blues 0 08.05.2015 21:00
Альбом Oscar Peterson - Oscar Peterson Plays Duke Ellington sergych Jazz и Blues 1 05.03.2015 20:44
Сборник Oscar Peterson - Perfect Peterson: The Best Of The Pablo And Telarc Recordings sergych Jazz и Blues 0 12.07.2013 19:51
Альбом Oscar Peterson - Oscar Peterson plays Porgy & Bess sergych Jazz и Blues 0 27.12.2008 06:28


Метки
2013 , days of wine and roses / all of me. oscar peterson best , instrumental , jazz , oscar peterson

Опции темы

Ваши права в разделе
Вы не можете создавать новые темы
Вы не можете отвечать в темах
Вы не можете прикреплять вложения
Вы не можете редактировать свои сообщения

Быстрый переход



Текущее время: 12:08. Часовой пояс GMT +3.
Powered by vBulletin® Version 3.8.10
Copyright ©2000 - 2018, vBulletin Solutions, Inc. Перевод: zCarot
© 2008 - 2018 Taifun With Song
Яндекс.Метрика