TAIFUN With Song
Навигация
Jazz и Blues Гибкая ритмика, импровизационное начало, гармонии и мелодии - все это Jazz. Blues - жизнеутверждающая музыка, рожденная из душевной боли

А знаете ли Вы, что...
Что поётся в самой короткой в мире песне?
«Песня английской группы Napalm Death "You Suffer" длится 1,316 секунды и считается самой короткой в мире. В ней поётся только одна фраза: "You suffer — but why?" («Вы страдаете — но зачем?»), и её очень трудно разобрать. Сначала песня была издана на альбоме Scum, а в 1989 году как сингл на отдельном диске.»
 
Опции темы

  #1
Старый 19.05.2018, 19:55
sergych
Координатор
Досье
 
Аватар для sergych
Релиз Leonard Cohen - You Want It Darker


2016 - Leonard Cohen - You Want It Darker




Исполнитель/Artist: Leonard Cohen
Альбом/Album: You Want It Darker
Год/Year: 2016
Жанр/Genre: blues, ballad, folk
Страна/Country: Соединённые Штаты
Рекорд-лейбл/Record label: Sony / Columbia
Номер в каталоге/Catalogue #: 88985365072
Формат/Format: Free Lossless Audio Codec (*.flac)
Качество/Quality: Lossless
Тип рипа/RIP Type: image+.cue
Продолжительность/Length: 00:36:13
Источник/Source: Собственный рип
Размер/Size: 218.2 MB

Сканы в комплекте

Треклист

01. You Want It Darker [0:04:44.28]
02. Treaty [0:04:02.25]
03. On The Level [0:03:27.51]
04. Leaving The Table [0:03:47.36]
05. If I Didn't Have Your Love [0:03:36.00]
06. Traveling Light [0:04:22.34]
07. It Seemed The Better Way [0:04:21.74]
08. Steer Your Way [0:04:23.36]
09. String Reprise / Treaty [0:03:26.70]
[свернуть]

youtube.com

[свернуть]

Исполнители/Performers

Leonard Cohen – vocals
Bill Bottrell – electric guitar, pedal steel guitar
Michael Chaves – keyboards, bass guitar, drum programming
Adam Cohen – classical guitar
Patrick Leonard – keyboards, organ, piano, bass synthesizer, bass guitar, percussion, drum programming
Brian Macleod – drums
Zac Rae – guitar, classical guitar, mandolin, keyboards, Mellotron, celesta, piano, Wurlitzer, floor tom, octophone
Cantor Gideon Zelermyer - vocal
Background Vocals: Dana Glover (Tracks 3&8), Athena Andreadis (Track 6), Alison Kraus (Track 8)
[свернуть]

EAC лог

Exact Audio Copy V1.3 from 2. September 2016

EAC extraction logfile from 16. May 2018, 6:18

Leonard Cohen / You Want It Darker

Used drive : ATAPI iHAS124 D Adapter: 0 ID: 2

Read mode : Secure
Utilize accurate stream : Yes
Defeat audio cache : Yes
Make use of C2 pointers : No

Read offset correction : 6
Overread into Lead-In and Lead-Out : No
Fill up missing offset samples with silence : Yes
Delete leading and trailing silent blocks : No
Null samples used in CRC calculations : Yes
Used interface : Installed external ASPI interface

Used output format : User Defined Encoder
Selected bitrate : 1024 kBit/s
Quality : High
Add ID3 tag : No
Command line compressor : C:\Program Files (x86)\Exact Audio Copy\Flac\flac.exe
Additional command line options : -6 -V -T "ARTIST=%artist%" -T "TITLE=%title%" -T "ALBUM=%albumtitle%" -T "DATE=%year%" -T "TRACKNUMBER=%tracknr%" -T "GENRE=%genre%" -T "COMMENT=%comment%" -T "BAND=%albuminterpret%" -T "ALBUMARTIST=%albuminterpret%" -T "COMPOSER=%composer%" %haslyrics%--tag-from-file=LYRICS="%lyricsfile%"%haslyrics% -T "DISCNUMBER=%cdnumber%" -T "TOTALDISCS=%totalcds%" -T "TOTALTRACKS=%numtracks%" %hascover%--picture="%coverfile%"%hascover% %source% -o %dest%


TOC of the extracted CD

Track | Start | Length | Start sector | End sector
---------------------------------------------------------
1 | 0:00.00 | 4:44.28 | 0 | 21327
2 | 4:44.28 | 4:02.25 | 21328 | 39502
3 | 8:46.53 | 3:27.51 | 39503 | 55078
4 | 12:14.29 | 3:47.36 | 55079 | 72139
5 | 16:01.65 | 3:36.00 | 72140 | 88339
6 | 19:37.65 | 4:22.34 | 88340 | 108023
7 | 24:00.24 | 4:21.74 | 108024 | 127672
8 | 28:22.23 | 4:23.36 | 127673 | 147433
9 | 32:45.59 | 3:26.70 | 147434 | 162953


Range status and errors

Selected range

Filename C:\mm\Leonard Cohen\2016 - You Want It Darker [88985365072]\Leonard Cohen - You Want It Darker.wav

Peak level 100.0 %
Extraction speed 1.6 X
Range quality 100.0 %
Test CRC 4D6DF8A5
Copy CRC 4D6DF8A5
Copy OK

No errors occurred

End of status report

---- CUETools DB Plugin V2.1.6

[CTDB TOCID: YVPBT6F4NvOZ41dW7pTY6Hn23K8-] found
Submit result: already submitted
Track | CTDB Status
1 | (2943/2957) Accurately ripped
2 | (2945/2957) Accurately ripped
3 | (2946/2957) Accurately ripped
4 | (2941/2957) Accurately ripped, or (4/2957) differs in 3 samples @00:13:26
5 | (2946/2957) Accurately ripped
6 | (2905/2957) Accurately ripped, or (5/2957) differs in 53 samples @03:21:35-03:21:36, or (22/2957) differs in 5 samples @01:16:12
7 | (2940/2957) Accurately ripped
8 | (2943/2957) Accurately ripped
9 | (2946/2957) Accurately ripped
[свернуть]

Файл CUE

REM GENRE Jazz
REM DATE 2016
REM DISCID 83087C09
REM COMMENT "ExactAudioCopy v1.3"
PERFORMER "Leonard Cohen"
TITLE "You Want It Darker"
REM COMPOSER ""
FILE "Leonard Cohen - You Want It Darker.flac" WAVE
TRACK 01 AUDIO
TITLE "You Want It Darker"
PERFORMER "Leonard Cohen"
REM COMPOSER ""
INDEX 01 00:00:00
TRACK 02 AUDIO
TITLE "Treaty"
PERFORMER "Leonard Cohen"
REM COMPOSER ""
INDEX 01 04:44:28
TRACK 03 AUDIO
TITLE "On The Level"
PERFORMER "Leonard Cohen"
REM COMPOSER ""
INDEX 01 08:46:53
TRACK 04 AUDIO
TITLE "Leaving The Table"
PERFORMER "Leonard Cohen"
REM COMPOSER ""
INDEX 01 12:14:29
TRACK 05 AUDIO
TITLE "If I Didn't Have Your Love"
PERFORMER "Leonard Cohen"
REM COMPOSER ""
INDEX 01 16:01:65
TRACK 06 AUDIO
TITLE "Traveling Light"
PERFORMER "Leonard Cohen"
REM COMPOSER ""
INDEX 01 19:37:65
TRACK 07 AUDIO
TITLE "It Seemed The Better Way"
PERFORMER "Leonard Cohen"
REM COMPOSER ""
INDEX 01 24:00:24
TRACK 08 AUDIO
TITLE "Steer Your Way"
PERFORMER "Leonard Cohen"
REM COMPOSER ""
INDEX 01 28:22:23
TRACK 09 AUDIO
TITLE "Treaty"
PERFORMER "String Reprise"
REM COMPOSER ""
INDEX 01 32:45:59
[свернуть]

Лог проверки качества

AUDIOCHECKER v2.0 beta (build 457) - by Dester -
~~~~~~~~~~~~~~~~~~~~~~~~~~~~~~~~~~
-=== НЕ РЕДАКТИРУЙТЕ ЭТОТ ФАЙЛ! ===-

Путь: ...\2016 - You Want It Darker [88985365072]

1 -=- Leonard Cohen - You Want It Darker.flac -=- CDDA (99%)

125293044
[свернуть]

Спектр частот

[свернуть]

Скачать Leonard Cohen - You Want It Darker



password: sergych
[свернуть]

Контрольная сумма (хеш-сумма) архива

MD5: 538c1cafec0d25036594eedb822a4aed
[свернуть]
My opinion of release: 10/10
__________________
TAIFUN.Wings of Soul

Вверх
2 пользователя(ей) сказали cпасибо:
swint68 (20.05.2018), TAIFUN (31.05.2018)
Похожие темы
Тема Автор Раздел Ответов Последнее сообщение
Сборник Leonard Cohen - More best of Leonard Cohen sergych Folk (народная) 0 19.07.2014 15:36
Сборник Leonard Cohen - The Best Of Leonard Cohen sergych Folk (народная) 0 08.05.2014 21:12
Альбом Leonard Cohen - The Future sergych Pop Rock 0 25.04.2014 17:42
Альбом Leonard Cohen - Songs Of Leonard Cohen henrik Pop Rock 0 05.11.2008 22:23
Альбом Leonard Cohen - I'm Your Man henrik Pop Rock 0 05.11.2008 22:23


Метки
2016 , ballad , blues , folk , leonard cohen , you want it darker

Опции темы

Ваши права в разделе
Вы не можете создавать новые темы
Вы не можете отвечать в темах
Вы не можете прикреплять вложения
Вы не можете редактировать свои сообщения

Быстрый переход



Текущее время: 12:56. Часовой пояс GMT +3.
Powered by vBulletin® Version 3.8.10
Copyright ©2000 - 2018, vBulletin Solutions, Inc. Перевод: zCarot
© 2008 - 2018 Taifun With Song
Яндекс.Метрика